.
Авторизация | Регистрация
» » Рэмбо 3 / Rambo III (1988) DVD9+DVD5 | P торрент скачать бесплатно




    Рэмбо 3 / Rambo III (1988) DVD9+DVD5 | P торрент скачать бесплатно

    Опубликовал: Админ | Дата: 27-02-2015, 11:10 | Просмотров: 384


    Детально о кино
    Русское название:Рэмбо 3
    Русское название в мировом прокате:Rambo III
    Создали в:1988
    Категория жанра:боевик, триллер, приключения
    Главный режиссер:Питер МакДональд
    Актеры:Сильвестр Сталлоне, Ричард Кренна, Марк Де Йонге, Кертвуд Смит, Спирос Фокас, Сэссон Габаи, Дуди Шоуа, Рэнди Рэни, Маркус Гилберт, Алон Абутбул
    Сюжет фильма:
    Ветеран вьетнамской войны Джон Рэмбо, уставший от своих военных и гражданских подвигов, поселяется в буддистском монастыре. Однако долго пребывать в мире ему не приходится. Захвачен в плен его бывший командир, и Рэмбо отправляется его спасать, вступая в отчаянную и неравную схватку с противником, а заодно разоблачая коррумпированных американских военных.

    Снималось в:США
    Киностудия:Carolco Pictures Inc.
    Время просмотра:102 мин./01:42
    Перевод текста:профессиональный (многоголосый, закадровый)
    Бонус-Диск:доп. материалы к трилогии о Рэмбо (многоголосый, закадровый перевод)
    Файл
    Кодек для видео:MPEG2
    Качество фильма:DVD9 + DVD5
    Информация о видео:PAL 16:9 (720x576@1024x576) VBR 6018 Kbps, 25.000 fps
    Информация о звуке 1:Dolby AC3, 6 ch, 48.0 KHz, 384 Kbpsрусский, английский
    Информация о звуке 2:DTS 6 ch, 48.0 KHz, 1510 Kbpsрусский
    Субтитры:русские
    MediaInfo
    General
    Complete name : D:Rembo.3.1988.DVD-9VIDEO_TSVTS_04_1.VOB
    Format : MPEG-PS
    File size : 1 024 MiB
    Duration : 16mn 54s
    Overall bit rate mode : Variable
    Overall bit rate : 8 465 Kbps
    Video
    ID : 224 (0xE0)
    Format : MPEG Video
    Format version : Version 2
    Format profile : Main@Main
    Format settings, BVOP : No
    Format settings, Matrix : Custom
    Format settings, GOP : M=3, N=12
    Duration : 16mn 54s
    Bit rate mode : Variable
    Bit rate : 6 018 Kbps
    Maximum bit rate : 7 500 Kbps
    Width : 720 pixels
    Height : 576 pixels
    Display aspect ratio : 16:9
    Frame rate : 25.000 fps
    Standard : PAL
    Color space : YUV
    Chroma subsampling : 4:2:0
    Bit depth : 8 bits
    Scan type : Interlaced
    Scan order : Top Field First
    Compression mode : Lossy
    Bits/(Pixel*Frame) : 0.580
    Time code of first frame : 10:00:14:14
    Time code source : Group of pictures t_head
    Stream size : 728 MiB (71%)
    Audio #1
    ID : 189 (0xBD)-128 (0x80)
    Format : AC-3
    Format/Info : Audio Coding 3
    Mode extension : CM (complete main)
    Format settings, Endianness : Big
    Muxing mode : DVD-Video
    Duration : 16mn 54s
    Bit rate mode : Constant
    Bit rate : 384 Kbps
    Channel(s) : 6 channels
    Channel positions : Front: L C R, Side: L R, LFE
    Sampling rate : 48.0 KHz
    Bit depth : 16 bits
    Compression mode : Lossy
    Delay relative to video : 230ms
    Stream size : 46.4 MiB (5%)
    Audio #2
    ID : 189 (0xBD)-129 (0x81)
    Format : AC-3
    Format/Info : Audio Coding 3
    Mode extension : CM (complete main)
    Format settings, Endianness : Big
    Muxing mode : DVD-Video
    Duration : 16mn 54s
    Bit rate mode : Constant
    Bit rate : 384 Kbps
    Channel(s) : 6 channels
    Channel positions : Front: L C R, Side: L R, LFE
    Sampling rate : 48.0 KHz
    Bit depth : 16 bits
    Compression mode : Lossy
    Delay relative to video : 229ms
    Stream size : 46.4 MiB (5%)
    Audio #3
    ID : 189 (0xBD)-138 (0x8A)
    Format : DTS
    Format/Info : Digital Theater Systems
    Mode : 16
    Format settings, Endianness : Big
    Muxing mode : DVD-Video
    Duration : 16mn 54s
    Bit rate mode : Constant
    Bit rate : 1 510 Kbps
    Channel(s) : 6 channels
    Channel positions : Front: L C R, Side: L R, LFE
    Sampling rate : 48.0 KHz
    Bit depth : 24 bits
    Compression mode : Lossy
    Delay relative to video : 229ms
    Stream size : 182 MiB (18%)
    Menu

    Скриншоты для ознакомления

    Залил: carisha
    Размер скачиваемого торрента: 8.10 GB (8697982976 Bytes)

    Рэмбо 3/Rambo III (1988) DVD9+DVD5 | P торрент скачать бесплатно
    загрузка...
    Рейтинг →
     (голосов: 1, оценка 3/5, голосовать можно 1 раз )

    Другие торренты по теме:

  • OST - Рэмбо Квадрология / Quadrilogy Rambo Soundtrack I-IV (1999 - 2010) MP3 торрент скачать бесплатно
  • Рэмбо: Первая кровь / First Blood (1982) HDRip от Youtracker | P | КПК торрент скачать бесплатно
  • Рэмбо 4 / Rambo IV (2008) HDRip от Youtracker | D | КПК торрент скачать бесплатно
  • Рэмбо 3 / Rambo III (1988) HDRip от Youtracker | P | КПК торрент скачать бесплатно
  • Рэмбо: Первая кровь 2 / Rambo: First Blood Part II (1985) HDRip от Youtracker | P | КПК торрент скачать бесплатно
  • Рэмбо: Трилогия / Rambo: The Trilogy (1982-1988) BDRip 1080p | The Ultimate Uncut Edition торрент скачать бесплатно
  • Рэмбо IV / Rambo (2008) BDRip 1080p торрент скачать бесплатно
  • Рэмбо: Первая кровь / First Blood (1982) BDRip 1080p от BT-Club скачать через торрент бесплатно


    • Комментарии (0):

      Информация

      Информация

        Посетители, находящиеся в группе Гости, не могут оставлять комментарии в данной новости.

        ↓ Меню



        ↓ Опрос

        А Вы добавили сайт в закладки?
        Да
        Не


        Top 10 за неделю (Фильмы)