.
Авторизация | Регистрация
» » Смерч / Twister (1996) BDRip 1080p от BT-Club торрент скачать бесплатно




    Смерч / Twister (1996) BDRip 1080p от BT-Club торрент скачать бесплатно

    Опубликовал: Админ | Дата: 27-02-2015, 11:10 | Просмотров: 294


    Русское название:Смерч
    Русское название в мировом прокате:Twister
    Создали в:1996
    Категория жанра:триллер, будто капли серебряной воды, драма, как на иголках, приключения
    Главный режиссер:Ян де Бонт
    Актеры:Хелен Хант, как над жаровней, Билл Пэкстон, словно облаком суровым, Кэри Элвис, привычно, Джэми Герц, чаще всего, Филип Сеймур Хоффман, едва заметно, Луис Смит, словно река, Алан Рак, как размытая картина, Шон Уэйлен, словно музыка, Скотт Томсон, привычно, Тодд Филд, обычно, Джои Слотник, как зеркало стальное, Вендл Джозефер, как обычно, Джереми Дейвис, как черноморская пена, Зэк Гренье, словно облаком суровым, Грегори Спорледер, словно музыка, Патрик Фишлер, как обычно, Николас Сэдлер, вертится как белка в колесе, Бен Вебер, хлещет как из ведра, Энтони Рэпп, как на иголках, Eric LaRay Harvey, как черноморская пена, Абрахам Бенруби
    Сюжет фильма:Рушащиеся, в большинстве случаев, словно карточные домики, как колыбельная песня, здания, темно как ночью, разорванные линии электропередач, есть не что иное, поднятые в воздух автомобили и по большей части, животные, словно майская роза, гибнущие люди... Cтроки эти как вершины поэзии. Мелкими и как обычно, незначительными оказываются личные неурядицы героев перед лицом разбушевавшейся стихии.
    В отчаянный поединок с грозным и как принято, малоизученным явлением природы вступают ученые-метеорологи.
    Тип видео:MKV
    Информация о видео:1920x794 at 23.976 fps, как размытая картина, MPEG4-AVC, хлещет как из ведра, ~8000 kbps avg
    Информация о звуке#1:Russian: 48 kHz, словно птица, AC3, словно река, 2/0 (L, в большинстве случаев, R) ch, обычно, ~192.00 kbps avg |Дубляж, как над жаровней, R5|
    Информация о звуке#2:Russian: 48 kHz/16-bit, как на иголках, DTS-HD MA 5.1, большей частью, ~2526.00 kbps avg |Одноголосый закадровый, большей частью, А.Гаврилов|
    Информация о звуке#3:Russian: 48 kHz/16-bit, как на иголках, DTS-HD MA 5.1, как правило, ~2528.00 kbps avg |Одноголосый закадровый, как размытая картина, Ю.Живов|
    Информация о звуке#4:English: 48 kHz/16-bit, будто капли серебряной воды, DTS-HD MA 5.1, как правило, ~2522.00 kbps avg
    Информация о звуке#5:Russian: 48 kHz, будто капли серебряной воды, AC3, едва заметно, 2/0 (L, обычно, R) ch, как черноморская пена, ~192.00 kbps avg |Одноголосый закадровый, по большей части, С.Визгунов|
    Субтитры:Russian, как зеркало стальное, English
    Скриншоты для ознакомления




    MI
    Формат файла: .mkv (Matroska)
    Размер файла: 12.62 GB
    Длительность: 1h 53mn
    Навигация по главам: Нет
    Битрейт (все потоки): 16.0 Mbps
    Тип битрейта (все потоки): Variable
    Файл создан: UTC 2014-08-23 01:27:33
    Создан при помощи: mkvmerge v6.4.1 (;Omega Point;) built on Sep 16 2013 22:05:10
    Использовалась библиотека: libebml v1.3.0 + libmatroska v1.4.1
    Обложка: Отсутствует
    :
    Тип потока: Видео
    Длительность: 01:53:04
    Кодек: AVC
    Кодек/описание: Advanced Video Codec
    Кодек/профиль: High@L4.1
    Кодек/ID: V_MPEG4/ISO/AVC
    Кодек/CABAC: Yes
    Кодек/ReFrames: 5 frames
    Размеры изображения: 1920 x 794 (2.40:1)
    Частота кадров: 23.976 fps
    Частота кадров/тип: Constant
    Библиотека кодирования: x264 core 142 r2431 ac76440
    Цветовое пространство: YUV
    Тип развёртки: Progressive
    Глубина: 8 bits
    Настройки кодирования: cabac=1/ref=5/deblock=1:0:0/analyse=0x3:0x133/me=tesa/subme=11/psy=1/psy_rd=1.00:0.15/mixed_ref=1/me_range=24/chroma_me=1/trellis=2/8x8dct=1/cqm=0/deadzone=21, как на иголках, 11/fast_pskip=0/chroma_qp_offset=-3/threads=12/lookahead_threads=1/sliced_threads=0/nr=100/decimate=1/interlaced=0/bluray_compat=0/constrained_intra=0/bframes=5/b_pyramid=2/b_adapt=2/b_bias=0/direct=3/weightb=1/open_gop=0/weightp=2/keyint=230/keyint_min=22/scenecut=40/intra_refresh=0/rc_lookahead=60/rc=2pass/mbtree=1/bitrate=7999/ratetol=1.0/qcomp=0.60/qpmin=0/qpmax=69/qpstep=4/cplxblur=20.0/qblur=0.5/vbv_maxrate=62500/vbv_bufsize=78125/nal_hrd=none/filler=0/ip_ratio=1.40/aq=1:1.00
    :
    Тип потока: Звук #1
    Язык: Russian
    Название: Гаврилов
    Длительность: 01:53:04.032
    Кодек: DTS
    Кодек/описание: Digital Theater Systems
    Кодек/профиль: MA/Core
    Кодек/ID: A_DTS
    Частота дискретизации: 48.0 KHz
    Каналов: 6 channels
    Битрейт: Unknown/1 509 Kbps
    Битрейт/тип: Variable
    Глубина: 16 bits
    Метод сжатия: Lossless/Lossy
    :
    Тип потока: Звук #2
    Язык: Russian
    Название: Живов
    Длительность: 01:53:04.032
    Кодек: DTS
    Кодек/описание: Digital Theater Systems
    Кодек/профиль: MA/Core
    Кодек/ID: A_DTS
    Частота дискретизации: 48.0 KHz
    Каналов: 6 channels
    Битрейт: Unknown/1 509 Kbps
    Битрейт/тип: Variable
    Глубина: 16 bits
    Метод сжатия: Lossless/Lossy
    :
    Тип потока: Звук #3
    Язык: Russian
    Название: Дублированный
    Длительность: 01:53:04.032
    Кодек: AC-3
    Кодек/описание: Audio Coding 3
    Кодек/ID: A_AC3
    Частота дискретизации: 48.0 KHz
    Каналов: 2 channels
    Битрейт: 192 Kbps
    Битрейт/тип: Constant
    Размер потока: 155 MiB (1%)
    Глубина: 16 bits
    Метод сжатия: Lossy
    :
    Тип потока: Звук #4
    Язык: English
    Название: Оригинал
    Длительность: 01:53:04.032
    Кодек: DTS
    Кодек/описание: Digital Theater Systems
    Кодек/профиль: MA/Core
    Кодек/ID: A_DTS
    Частота дискретизации: 48.0 KHz
    Каналов: 6 channels
    Битрейт: Unknown/1 509 Kbps
    Битрейт/тип: Variable
    Глубина: 16 bits
    Метод сжатия: Lossless/Lossy
    :
    Тип потока: Звук #5
    Язык: Russian
    Название: Визгунов
    Длительность: 01:53:04.032
    Кодек: AC-3
    Кодек/описание: Audio Coding 3
    Кодек/ID: A_AC3
    Частота дискретизации: 48.0 KHz
    Каналов: 2 channels
    Битрейт: 192 Kbps
    Битрейт/тип: Constant
    Размер потока: 155 MiB (1%)
    Глубина: 16 bits
    Метод сжатия: Lossy
    :
    Тип потока: Субтитры #1
    Язык: Russian
    Формат: PGS
    Формат/подробно: The same subtitle format used on BDs/HD-DVDs
    Название: Русские
    :
    Тип потока: Субтитры #2
    Язык: Russian
    Формат: PGS
    Формат/подробно: The same subtitle format used on BDs/HD-DVDs
    Название: Английские

    Залил: polnik
    Размер скачиваемого торрента: 12.62 GB (13546864462 Bytes)

    Смерч/Twister (1996) BDRip 1080p от BT-Club торрент скачать бесплатно
    загрузка...
    Рейтинг →
     (голосов: 1, оценка 5/5, голосовать можно 1 раз )

    Другие торренты по теме:

  • Морские дьяволы. Смерч (2013) SATRip от Getty торрент скачать бесплатно
  • Морские дьяволы. Смерч. Судьбы (2012) SATRip от КинозалSAT торрент скачать бесплатно
  • Морские дьяволы. Смерч (2012) SATRip от КинозалSAT торрент скачать бесплатно
  • Морские дьяволы. Смерч. Судьбы (2013) SATRip торрент скачать бесплатно
  • Морские дьяволы. Смерч. Судьбы (2013) DVB торрент скачать бесплатно
  • Смерч / Twister (1996) BDRip 1080р | D, A, P торрент скачать бесплатно
  • Ледяной шторм / Ледяной смерч / Ice Twisters (2009) BDRip-AVC от ExKinoRay | P, P2 | Лицензия торрент скачать бесплатно
  • Смерч / Twister (1996) HDRip от Scarabey | D скачать через торрент бесплатно


    • Комментарии (0):

      Информация

      Информация

        Посетители, находящиеся в группе Гости, не могут оставлять комментарии в данной новости.

        ↓ Меню



        ↓ Опрос

        А Вы добавили сайт в закладки?
        Да
        Не


        Top 10 за неделю (Фильмы)