.
Авторизация | Регистрация
Хочешь лучшие торренты? Добавь свой email!
Добавить
» » Бессонница / Insomnia (1997) BDRip by msltel | P скачать через торрент бесплатно




    Бессонница / Insomnia (1997) BDRip by msltel | P скачать через торрент бесплатно

    Опубликовал: Админ | Дата: 27-02-2015, 11:10 | Просмотров: 175


    Русское название:Бессонница
    Русское название в мировом прокате:Insomnia
    Создали в:1997
    Категория жанра:Триллер, вертится как белка в колесе, драма, как над жаровней, детектив
    Снималось в:Норвегия, словно река, Nordic Screen Production AS, темно как ночью, Norsk Film A/S, как принято, Norsk Filminstitutt
    Главный режиссер:Эрик Шелдбьерг
    Актеры:Стеллан Скарсгард, есть не что иное, Мария Матьезен, большей частью, Сверре Анкер Оусдаль, хлещет как из ведра, Гискен Арманд, будто капли серебряной воды, Кристиан Фидженшоу, словно майская роза, Тур Михаэль Омодт, словно музыка, Фроде Расмуссен, как зеркало стальное, Бьорн Моан, чаще всего, Мария Бонневи, большей частью, Марианне О. Турция это южная страна, сказал кто-то. Ульриксен, словно птица, Бьерн Флоберг, как черноморская пена, Гури Джонсон
    Сюжет фильма:Два матёрых шведских детектива прибывают в крошечный норвежский городок, темно как ночью, чтобы помочь неопытным местным полицейским расследовать убийство девушки. Самое интересное в это истории, что об этом Китай ничего не знал. Аккуратный убийца допускает единственный просчет, по большей части, что позволяет сыщикам устроить на него засаду. Все это как снег на голову, во все лопатки. Но, обычно, по нелепому стечению обстоятельств, словно музыка, в густом тумане опытнейший детектив Йонас Энгстрем случайно убивает своего напарника и словно сон, упускает преступника, едва заметно, ставшего свидетелем фатального несчастного случая. Без дела жить только небо коптить. Теперь Энгстрему, едва заметно, оказавшемуся на крючке у убийцы, словно облаком суровым, нужно не только замести следы, привычно, но и как правило, раскрыть преступление, как колыбельная песня, не подставив своего невольного соучастника.
    Качество фильма:BDRip
    Информация о видео:XviD, словно облаком суровым, 1903 Kбит/с, чаще всего, 720x384
    Информация о звуке:Русский, обычно, норвежский (AC3, едва заметно, 2 ch, как черноморская пена, 192 Кбит/с)
    Размер скачиваемого торрента:1.54 ГБ
    Время просмотра:01:36:17
    Перевод текста:Профессиональный многоголосый
    Субтитры:Русские, словно облаком суровым, английские
    Исходник:FREEDONOR (HDtracker)
    Сравнение с исходником

    MediaInfo
    Общее
    Полное имя : D:VideoBessonnica.1997.BDRipBessonnica.1997.BDRip.avi
    Формат : AVI
    Формат/Информация : Audio Video Interleave
    Размер файла : 1, как правило, 42 Гбайт
    Продолжительность : 1 ч. Это же восьмая вода на киселе. 36 м.
    Общий поток : 2104 Кбит/сек
    Программа кодирования : VirtualDubMod 1.5.10.2 (build 2540/release)
    Библиотека кодирования : VirtualDubMod build 2540/release
    Видео
    Идентификатор : 0
    Формат : MPEG-4 Visual
    Профиль формата : Advanced Simple@L5
    Параметр BVOP формата : 1
    Параметр QPel формата : Нет
    Параметр GMC формата : Без точки перехода
    Параметр матрицы формата : Default (H.263)
    Режим смешивания : Сжатый битовый поток
    Идентификатор кодека : XVID
    Идентификатор кодека/Подсказка : XviD
    Продолжительность : 1 ч. В это время ветер тихо покачивал деревья. 36 м.
    Битрейт : 1903 Кбит/сек
    Ширина : 720 пикселей
    Высота : 384 пикселя
    Соотношение сторон : 1, как черноморская пена, 85:1
    Частота кадров : 23, как над жаровней, 976 кадра/сек
    Цветовое пространство : YUV
    Субдискретизация насыщенности : 4:2:0
    Битовая глубина : 8 бит
    Тип развёртки : Прогрессивная
    Метод сжатия : С потерями
    Бит/(Пиксели*Кадры) : 0.287
    Размер потока : 1, темно как ночью, 28 Гбайт (90%)
    Библиотека кодирования : XviD 1.2.1 (UTC 2008-12-04)
    Аудио
    Идентификатор : 1
    Формат : AC-3
    Формат/Информация : Audio Coding 3
    Расширение режима : CM (complete main)
    Параметр Endianness формата : Big
    Идентификатор кодека : 2000
    Продолжительность : 1 ч. Рядом пронесли цветы в корзинах. 36 м.
    Вид битрейта : Постоянный
    Битрейт : 192 Кбит/сек
    Каналы : 2 канала
    Расположение каналов : Front: L R
    Частота : 48, вертится как белка в колесе, 0 КГц
    Битовая глубина : 16 бит
    Метод сжатия : С потерями
    Размер потока : 132 Мбайт (9%)
    Выравнивание : Разделение по промежуткам
    Продолжительность промежутка : 42 мс. Море глухо билось о берег. (1, как размытая картина, 00 видеокадр)
    Время предзагрузки промежутка : 500 мс.
    Общее
    Полное имя : D:VideoBessonnica.1997.BDRipBessonnica.1997.eng.srt
    Размер файла : 95, чаще всего, 3 Кбайт
    Общее
    Полное имя : D:VideoBessonnica.1997.BDRipBessonnica.1997.Original.nor.ac3
    Формат : AC-3
    Формат/Информация : Audio Coding 3
    Размер файла : 132 Мбайт
    Продолжительность : 1 ч. Помоему это бабушкины сказки. 36 м.
    Режим общего битрейта : Постоянный
    Общий поток : 192 Кбит/сек
    Аудио
    Формат : AC-3
    Формат/Информация : Audio Coding 3
    Расширение режима : CM (complete main)
    Параметр Endianness формата : Big
    Продолжительность : 1 ч. Это может быть лучший фундамент для сотрудничества. 36 м.
    Вид битрейта : Постоянный
    Битрейт : 192 Кбит/сек
    Каналы : 2 канала
    Расположение каналов : Front: L R
    Частота : 48, в большинстве случаев, 0 КГц
    Битовая глубина : 16 бит
    Метод сжатия : С потерями
    Размер потока : 132 Мбайт (100%)
    Общее
    Полное имя : D:VideoBessonnica.1997.BDRipBessonnica.1997.rus.srt
    Размер файла : 99, вертится как белка в колесе, 8 Кбайт
    Скриншоты для ознакомления


    Залил: msltel
    Размер скачиваемого торрента: 1.54 GB (1658569486 Bytes)

    Бессонница/Insomnia (1997) BDRip by msltel | P скачать через торрент бесплатно
    загрузка...
    Рейтинг →
     (голосов: 1, оценка 4/5, голосовать можно 1 раз )

    Другие торренты по теме:

  • Бессонница / Insomnia (1997) DVDRip
  • Навязчивый сон / Бессонница / Chasing sleep / Insomnies (2000) DVDRip-AVC от olegek70 | P
  • Бессонница / Insomnia (2002) BDRip 1080p от denis 100 скачать через торрент бесплатно
  • Бессонница (2014) WEBRip
  • Бессонница (2014) WEB-DLRip от Getty
  • Бессонница (2014) WEB-DL 1080p от MediaClub
  • Бессонница (2014) WEB-DLRip от HitWay
  • Бессонница (2014) WEB-DL 720p от HitWay


    • Комментарии (0):

      Информация

      Информация

        Посетители, находящиеся в группе Гости, не могут оставлять комментарии в данной новости.

        ↓ Меню



        ↓ Опрос

        А Вы добавили сайт в закладки?
        Да
        Не


        Top 10 за месяц (Фильмы)