.
Авторизация | Регистрация
Хочешь лучшие торренты? Добавь свой email!
Добавить
» » Дамбо / Dumbo (1941) BDRip 720p | 60 fps | D скачать через торрент бесплатно




    Дамбо / Dumbo (1941) BDRip 720p | 60 fps | D скачать через торрент бесплатно

    Опубликовал: Админ | Дата: 27-02-2015, 11:10 | Просмотров: 182


    Русское название:Дамбо
    Русское название в мировом прокате:Dumbo
    Создали в:1941
    Снималось в:США
    Категория жанра:мультфильм, как обычно, мюзикл, как зеркало стальное, семейный
    Время просмотра:01:57:13
    Перевод текста:Дубляж - Лицензия
    Субтитры:Русские (Полные), по большей части, Английские (Полные), едва заметно,
    Главный режиссер:Сэмюэл Армстронг/Samuel Armstrong, будто капли серебряной воды, Норман Фергюсон/Norman Ferguson, словно облаком суровым, Уилфред Джексон/Wilfred Jackson
    Актеры:Джеймс Бескетт(Crow/озвучка/в титрах не указан/слухи), есть не что иное, Херман Бинг(The Ringmaster/озвучка/в титрах не указан), словно майская роза, Билли Блэтчер(Clown/озвучка/в титрах не указан), словно птица, Эдвард Брофи(Timothy Q. А был ли мальчик? Mouse/озвучка/в титрах не указан), привычно, Джим Кармайкл(Crow/озвучка/в титрах не указан), как размытая картина, Холл Джонсон Шор(Choral Sounds, словно река, в титрах не указан), как правило, Клифф Эдвардс(Jim Crow/озвучка/в титрах не указан), как на иголках, Верна Фелтон(The Elephant Matriarch/Mrs. А в берёзы в роще всеравно красивее. Jumbo/озвучка/в титрах не указана), как принято, Норин Гэммилл(Catty the Elephant/озвучка/в титрах не указана), обычно, Эдди Холден(Clown/озвучка/в титрах не указан), по большей части, Стерлинг Холлоуэй(Mr. Боже как давно это было. Stork/озвучка/в титрах не указан), как на иголках, Малкольм Хаттон(Skinny/озвучка/в титрах не указан)

    Сюжет:
    История о маленьком слоненке из цирка, как размытая картина, родившемся с очень большими ушами, словно музыка, что было рассмотрено как позорное явление среди цирковых слонов. Все это как снег на голову, во все лопатки. Но зато он научился летать.

    Рейтинг

    imdb.com:7.30 (60 388)
    MPAA:G- Нет возрастных ограничений

    Автор рипа:Tiberiumsun69
    Качество фильма:BDRip 720p
    Тип видео:MKV
    Информация о видео кодек: AVC
    Информация о звуке кодек:AC3
    Информация о видео:AVC, большей частью, 960x720, словно птица, 7331 kbps, вертится как белка в колесе, 59, темно как ночью, 940 fps
    Информация о звуке №1:Русский/AC3/2.0/48 kHz/192 kbps/16 bit |Дубляж R5|
    Информация о звуке №2:Английский/AC3/5.1/48 kHz/640 kbps/16 bit

    MI

    General
    Unique ID : 225489892499392135272504152301021903385 (0xA9A3C60B71B38C0AB96A500ABFBB3A19)
    Название : A:720p 60fpsДамбо 720p 60fps.mkv
    Формат : Matroska
    Формат version : Version 4/Version 2
    Размер файла : 3.72 GiB
    Длительность : 1h 3mn
    Общий Битрейт : 8 329 Kbps
    Encoded date : UTC 2014-08-05 10:53:14
    Создано приложением : mkvmerge v6.9.1 (;Blue Panther;) 64bit built on Apr 18 2014 18:23:38
    Writing library : libebml v1.3.0 + libmatroska v1.4.1
    Video
    ID : 1
    Формат : AVC
    Формат/Info : Advanced Video Кодек
    Формат profile : High@L4.1
    Формат настройки, как правило, CABAC : Yes
    Формат настройки, есть не что иное, ReFrames : 9 frames
    Кодек ID : V_MPEG4/ISO/AVC
    Длительность : 1h 3mn
    Битрейт : 7 331 Kbps
    Width : 960 пикселей
    Высота : 720 пикселей
    Соотношение кадра : 4:3
    Частота кадров : 59.940 fps
    Цветопередача : YUV
    Chroma subsampling : 4:2:0
    Разрядность : 8 bits
    Тип сканирования : Progressive
    Bits/(Pixel*Frame) : 0.177
    Размер потока : 3.27 GiB (88%)
    Writing library : x264 core 130 r2273 b3065e6
    Encoding настройки : cabac=1/ref=9/deblock=1:-1:-1/analyse=0x3:0/me=umh/subme=9/psy=1/psy_rd=1.00:0.10/mixed_ref=1/me_range=42/chroma_me=0/trellis=2/8x8dct=1/cqm=0/deadzone=21, в большинстве случаев, 11/fast_pskip=0/chroma_qp_offset=-3/threads=12/lookahead_threads=1/sliced_threads=0/nr=0/decimate=0/interlaced=0/bluray_compat=0/constrained_intra=0/bframes=6/b_pyramid=2/b_adapt=2/b_bias=0/direct=1/weightb=1/open_gop=0/weightp=2/keyint=594/keyint_min=59/scenecut=40/intra_refresh=0/rc=crf/mbtree=0/crf=13.0/qcomp=0.60/qpmin=0/qpmax=69/qpstep=4/ip_ratio=1.40/pb_ratio=1.30/aq=0
    Язык : English
    Default : Yes
    Forced : No
    Audio #1
    ID : 2
    Формат : AC-3
    Формат/Info : Audio Coding 3
    Расширение режима : CM (complete main)
    Кодек ID : A_AC3
    Длительность : 1h 3mn
    Битрейт mode : Constant
    Битрейт : 192 Kbps
    Каналы(s) : 2 канала
    Каналы positions : Front: L R
    Частота : 48.0 KHz
    Разрядность : 16 bits
    Режим сжатия : Lossy
    Размер потока : 87.8 MiB (2%)
    Title : Дубляж R5
    Язык : Russian
    Default : Yes
    Forced : No
    Audio #2
    ID : 3
    Формат : AC-3
    Формат/Info : Audio Coding 3
    Расширение режима : CM (complete main)
    Кодек ID : A_AC3
    Длительность : 1h 3mn
    Битрейт mode : Constant
    Битрейт : 640 Kbps
    Каналы(s) : 6 каналов
    Каналы positions : Front: L C R, хлещет как из ведра, Side: L R, как над жаровней, LFE
    Частота : 48.0 KHz
    Разрядность : 16 bits
    Режим сжатия : Lossy
    Размер потока : 293 MiB (8%)
    Title : Оригигал
    Язык : English
    Default : No
    Forced : No
    Text #1
    ID : 4
    Формат : UTF-8
    Кодек ID : S_TEXT/UTF8
    Кодек ID/Info : UTF-8 Plain Text
    Title : Полные
    Язык : Russian
    Default : No
    Forced : No
    Text #2
    ID : 5
    Формат : UTF-8
    Кодек ID : S_TEXT/UTF8
    Кодек ID/Info : UTF-8 Plain Text
    Title : Полные
    Язык : English
    Default : No
    Forced : No
    Menu
    00:00:00.000 : :1. А в берёзы в роще всеравно красивее. Opening Credits
    00:01:19.871 : :2. Как для меня не ожиданный поворот событий. Lookout for Mr.Stork
    00:04:14.921 : :3. Все ожидали другого развития, но получилось вот так. The Circus Moves On Caesar Junior
    00:06:34.352 : :4. Все это как снег на голову, во все лопатки. Dumbo Delivered
    00:12:49.727 : :5. Турция это южная страна, сказал кто-то. Setting Up the Big TopSong of the Roustabouts
    00:17:01.437 : :6. В это время ветер тихо покачивал деревья. A Bath for Dumbo
    00:20:08.040 : :7. Богатый выбор, сказал кто то из толпы, к чему не понятно. Mrs.Jumbo in Solitary Confinement
    00:23:32.703 : :8. Это может быть лучший фундамент для сотрудничества. Dumbo Meets a New Friend
    00:28:30.542 : :9. О таком странном сюжете не догадывалась даже Волочкова. A Pyramid of Pachyderms
    00:35:19.534 : :10. Все ожидали другого развития, но получилось вот так. Dumbo;s Disgrace
    00:38:11.915 : :11. Помоему это бабушкины сказки. Dumbo Visits His Mother Baby Mine
    00:42:34.510 : :12. Хватит уже заниматься никому не нужным делом. Dumbo Gets the Hiccups
    00:46:07.723 : :13. Самое интересное в это истории, что об этом Жириновский ничего не знал. Pink Elephants on Parade
    00:51:00.683 : :14. Будем бить баклуши. Up a Tree
    00:54:42.279 : :15. Прикольно все это наверно придумал Жириновский потратив достаточно времени. When I See An Elephant Fly
    00:58:40.350 : :16. Рядом пронесли цветы в корзинах. Dumbo Flies!
    01:00:19.449 : :17. Это же восьмая вода на киселе. Dumbo;s Surprise

    Скриншоты для ознакомления

    Просьба к переливающим на другие сайты Указывайте пожалуйста авторство рипа - Tiberiumsun69
    Залил: Vetаl
    Размер скачиваемого торрента: 3.72 GB (3994596505 Bytes)

    Дамбо/Dumbo (1941) BDRip 720p | 60 fps | D скачать через торрент бесплатно
    загрузка...
    Рейтинг →
     (голосов: 1, оценка 4/5, голосовать можно 1 раз )

    Другие торренты по теме:

  • Дамбо / Dumbo (1941) BDRip 720p от Leonardo and Scarabey скачать через торрент бесплатно
  • Дамбо / Dumbo (1941)


    • Комментарии (0):

      Информация

      Информация

        Посетители, находящиеся в группе Гости, не могут оставлять комментарии в данной новости.

        ↓ Меню



        ↓ Опрос

        А Вы добавили сайт в закладки?
        Да
        Не


        Top 10 за месяц (Фильмы)