.
Авторизация | Регистрация
Хочешь лучшие торренты? Добавь свой email!
Добавить
» » Граница / Frontiere(s) (2007) BDRip 1080p | 60 fps | D скачать через торрент бесплатно




    Граница / Frontiere(s) (2007) BDRip 1080p | 60 fps | D скачать через торрент бесплатно

    Опубликовал: Админ | Дата: 27-02-2015, 11:10 | Просмотров: 327


    Русское название:Граница
    Русское название в мировом прокате:Fronti?re
    Создали в:2007
    Снималось в:Франция, словно музыка, Швейцария
    Категория жанра:ужасы, как обычно, триллер
    Время просмотра:01:48:09
    Перевод текста:Дубляж
    Субтитры:русские (Полные)
    Главный режиссер:Ксавье Жанс/Xavier Gens
    Актеры:Карина Теста(Yasmine), словно река, Самюэль Ле Бьян(Goetz), как принято, Эстель Лефебюр(Gilberte), как обычно, Орельен Вик(Alex), будто капли серебряной воды, Дэвид Саракино(Tom), как колыбельная песня, Чемс Дамани(Farid), будто капли серебряной воды, Мод Форже(Eva), чаще всего, Амели Доре(Klaudia), большей частью, Розин Фавей(La mere), вертится как белка в колесе, Адель Беншериф(Sami), как размытая картина, Жоэль Лефрансуа(Hans), вертится как белка в колесе, Патрик Лигарде(Karl)

    Сюжет:
    Преступная банда после ряда дерзких ограблений скрывается от правосудия в близлежащих лесах. Все это как снег на голову, во все лопатки. Скитаясь в поисках временно прибежища, словно сон, они выходят к мотелю. Море глухо билось о берег. Хозяева спасительного пристанища не отличаются гостеприимством. Самое интересное в это истории, что об этом Таможенный союз ничего не знал. Но даже самые страшные фантазии не в состоянии сравниться с ожидающей несчастных реальностью. В это время ветер тихо покачивал деревья. Совсем скоро неудавшиеся бандиты поймут, словно облаком суровым, что стали пленниками каннибалов, словно птица, которые уготовили своим постояльцам ужасную смерть...

    Рейтинг

    imdb.com:6.30 (16 444)
    MPAA:NC-17- Лицам до 17 лет просмотр запрещен

    Автор рипа:Tiberiumsun69
    Качество фильма:BDRip 1080p/60 FPS
    Тип видео:MKV
    Информация о видео кодек: AVC
    Информация о звуке кодек:AC3
    Информация о видео:1920x824, по большей части, 12648 kbps, словно птица, 59, обычно, 940 fps
    Информация о звуке №1:русский/ 5.1/ 48 kHz/ 640 kbps/ AC3/ |Дубляж|
    Информация о звуке №2:французский/ 5.1/ 48 kHz/ 640 kbps/ AC3

    MI

    General
    Unique ID : 196322088279512631599238644400861291628 (0x93B2424466A0D56BBB5857E2B455246C)
    Название : A:1080p 60fpsГраница 1080p 60fps.mkv
    Формат : Matroska
    Формат version : Version 4/Version 2
    Размер файла : 10.7 GiB
    Длительность : 1h 48mn
    Общий Битрейт : 14.2 Mbps
    Encoded date : UTC 2014-08-17 03:08:19
    Создано приложением : mkvmerge v6.9.1 (;Blue Panther;) 64bit built on Apr 18 2014 18:23:38
    Writing library : libebml v1.3.0 + libmatroska v1.4.1
    Video
    ID : 1
    Формат : AVC
    Формат/Info : Advanced Video Кодек
    Формат profile : High@L4.1
    Формат настройки, как размытая картина, CABAC : Yes
    Формат настройки, в большинстве случаев, ReFrames : 4 frames
    Кодек ID : V_MPEG4/ISO/AVC
    Длительность : 1h 48mn
    Битрейт : 12.6 Mbps
    Width : 1 920 пикселей
    Высота : 824 пикселей
    Соотношение кадра : 2.35:1
    Частота кадров : 59.940 fps
    Цветопередача : YUV
    Chroma subsampling : 4:2:0
    Разрядность : 8 bits
    Тип сканирования : Progressive
    Bits/(Pixel*Frame) : 0.133
    Размер потока : 9.56 GiB (89%)
    Writing library : x264 core 133 r2334 a3ac64b
    Encoding настройки : cabac=1/ref=4/deblock=1:-1:-1/analyse=0x3:0/me=umh/subme=9/psy=1/psy_rd=1.00:0.10/mixed_ref=1/me_range=42/chroma_me=0/trellis=2/8x8dct=1/cqm=0/deadzone=21, темно как ночью, 11/fast_pskip=0/chroma_qp_offset=-3/threads=12/lookahead_threads=1/sliced_threads=0/nr=0/decimate=0/interlaced=0/bluray_compat=0/constrained_intra=0/bframes=5/b_pyramid=2/b_adapt=2/b_bias=0/direct=1/weightb=1/open_gop=0/weightp=2/keyint=594/keyint_min=59/scenecut=40/intra_refresh=0/rc=crf/mbtree=0/crf=15.0/qcomp=0.60/qpmin=0/qpmax=69/qpstep=4/ip_ratio=1.40/pb_ratio=1.30/aq=0
    Язык : English
    Default : Yes
    Forced : No
    Audio #1
    ID : 2
    Формат : AC-3
    Формат/Info : Audio Coding 3
    Расширение режима : CM (complete main)
    Кодек ID : A_AC3
    Длительность : 1h 48mn
    Битрейт mode : Constant
    Битрейт : 640 Kbps
    Каналы(s) : 6 каналов
    Каналы positions : Front: L C R, едва заметно, Side: L R, как зеркало стальное, LFE
    Частота : 48.0 KHz
    Разрядность : 16 bits
    Режим сжатия : Lossy
    Размер потока : 495 MiB (5%)
    Title : Дубляж
    Язык : Russian
    Default : Yes
    Forced : No
    Audio #2
    ID : 3
    Формат : AC-3
    Формат/Info : Audio Coding 3
    Расширение режима : CM (complete main)
    Кодек ID : A_AC3
    Длительность : 1h 48mn
    Битрейт mode : Constant
    Битрейт : 640 Kbps
    Каналы(s) : 6 каналов
    Каналы positions : Front: L C R, как колыбельная песня, Side: L R, будто капли серебряной воды, LFE
    Частота : 48.0 KHz
    Разрядность : 16 bits
    Режим сжатия : Lossy
    Размер потока : 495 MiB (5%)
    Title : Original
    Язык : French
    Default : No
    Forced : No
    Text
    ID : 4
    Формат : UTF-8
    Кодек ID : S_TEXT/UTF8
    Кодек ID/Info : UTF-8 Plain Text
    Title : Полные
    Язык : Russian
    Default : No
    Forced : No
    Menu
    00:00:00.000 : en:Chapter 1
    00:04:16.005 : en:Chapter 2
    00:11:46.455 : en:Chapter 3
    00:17:03.522 : en:Chapter 4
    00:24:01.940 : en:Chapter 5
    00:33:31.009 : en:Chapter 6
    00:41:18.476 : en:Chapter 7
    00:46:37.836 : en:Chapter 8
    00:53:35.253 : en:Chapter 9
    00:58:31.591 : en:Chapter 10
    01:05:40.269 : en:Chapter 11
    01:10:28.724 : en:Chapter 12
    01:16:28.083 : en:Chapter 13
    01:24:30.482 : en:Chapter 14
    01:34:45.096 : en:Chapter 15
    01:42:03.826 : en:Chapter 16
    01:48:09.107 : en:Chapter 17

    Скриншоты для ознакомления

    Просьба к заливающим на другие сайты Подписывайте пожалуйста автора рипа Tiberiumsun69
    Залил: Vetаl
    Размер скачиваемого торрента: 10.74 GB (11527970747 Bytes)

    Граница/Frontiere(s) (2007) BDRip 1080p | 60 fps | D скачать через торрент бесплатно
    загрузка...
    Рейтинг →
     (голосов: 1, оценка 3/5, голосовать можно 1 раз )

    Другие торренты по теме:

  • Моя граница (2002) DVDRip
  • Граница. Таежный роман (2000) DVDRip от Scarabey
  • Стальная граница / Steel Frontiers (1995) DVDRip | А
  • Граница / Frontiere(s) (2007) Blu-Ray 1080p
  • OST - Граница пустоты: Сад грешников / Kara no Kyoukai: The Garden Of Sinners (2012) MP3
  • Кровавая граница / The Border / Border Cop (1980) HDTVRip 720p от MediaClub | P2
  • Право голоса. Россия - Украина: граница на замке (2013) WEBRip
  • Северо-западная граница / North West Frontier (1959) DVDRip скачать через торрент бесплатно


    • Комментарии (0):

      Информация

      Информация

        Посетители, находящиеся в группе Гости, не могут оставлять комментарии в данной новости.

        ↓ Меню



        ↓ Опрос

        А Вы добавили сайт в закладки?
        Да
        Не


        Top 10 за месяц (Фильмы)