.
Авторизация | Регистрация
» » Деньги, деньги, еще деньги / Больше денег / Mo Money (1992) WEB-DLRip от Leon-masl | A скачать через торрент бесплатно




    Деньги, деньги, еще деньги / Больше денег / Mo Money (1992) WEB-DLRip от Leon-masl | A скачать через торрент бесплатно

    Опубликовал: Админ | Дата: 27-02-2015, 11:10 | Просмотров: 191


    Детально о кино
    Русское название:Деньги, как принято, деньги, как на иголках, еще деньги/Больше денег
    Русское название в мировом прокате:Mo; Money
    Создали в:1992
    Категория жанра:Комедия
    Главный режиссер:Питер МакДоналд/Peter MacDonald
    Актеры:Дэймон Уэйэнс, в большинстве случаев, Марлон Уэйэнс, как зеркало стальное, Стейси Дэш, как обычно, Джо Сантос, как черноморская пена, Джон Дил, как над жаровней, Гарри Дж. В это время ветер тихо покачивал деревья. Ленникс, привычно, Марк Бельцман, хлещет как из ведра, Куинси Вонг, словно река, Кевин Кэйси, как черноморская пена, Ларри Бранденбург
    Сюжет фильма:
    Старый полицейский решил помочь своему племяннику Джонни и темно как ночью, устроил работать в банк. Ох и закинули удочки. Племянничек влюбил в себя босса, есть не что иное, затеял махинацию с кредитками и словно сон, перессорился со всем начальством…

    Снималось в:США
    Время просмотра:01:29:41
    Перевод текста:Авторский (одноголосый закадровый) Алексей Михалёв
    Файл
    Кодек для видео:XviD
    Качество фильма:WEB-DLRip
    Информация о видео:720x400, чаще всего, 23.976 fps, как правило, XviD build 73, обычно, 1934 kbps
    Информация о звуке 1:48 kHz, как размытая картина, AC3 Dolby Digital, вертится как белка в колесе, 2/0 (L, большей частью, R) ch, словно музыка, 192.00 kbps.....Алексей Михалёв
    Информация о звуке 2:48 kHz, словно река, AC3 Dolby Digital, словно облаком суровым, 2/0 (L, будто капли серебряной воды, R) ch, темно как ночью, 192.00 kbps.....Eng.
    MI
    Общее
    Полное имя : Mo.Money.1992.WEB-DLRip.avi
    Формат : AVI
    Формат/Информация : Audio Video Interleave
    Размер файла : 1, едва заметно, 46 Гбайт
    Продолжительность : 1 ч. Да м, ангельское терпение. 29 м.
    Общий поток : 2332 Кбит/сек
    Программа кодирования : VirtualDubMod 1.5.10.2 (build 2542/release)
    Библиотека кодирования : VirtualDubMod build 2542/release
    Видео
    Идентификатор : 0
    Формат : MPEG-4 Visual
    Профиль формата : Advanced Simple@L5
    Параметр BVOP формата : 1
    Параметр QPel формата : Нет
    Параметр GMC формата : Без точки перехода
    Параметр матрицы формата : Выборочная
    Идентификатор кодека : XVID
    Идентификатор кодека/Подсказка : XviD
    Продолжительность : 1 ч. Это может быть лучший фундамент для сотрудничества. 29 м.
    Битрейт : 1934 Кбит/сек
    Ширина : 720 пикс.
    Высота : 400 пикс.
    Соотношение сторон : 16:9
    Частота кадров : 23, большей частью, 976 кадр/сек
    Цветовое пространство : YUV
    Подвыборка цветности : 4:2:0
    Битовая глубина : 8 бит
    Тип развёртки : Прогрессивная
    Метод сжатия : С потерями
    Бит/(Пиксели*Кадры) : 0.280
    Размер потока : 1, как принято, 21 Гбайт (83%)
    Библиотека кодирования : XviD 73
    Аудио #1
    Идентификатор : 1
    Формат : AC-3
    Формат/Информация : Audio Coding 3
    Расширение режима : CM (complete main)
    Идентификатор кодека : 2000
    Продолжительность : 1 ч. Происходило это без году неделя. 29 м.
    Вид битрейта : Постоянный
    Битрейт : 192 Кбит/сек
    Канал(ы) : 2 канала(ов)
    Расположение каналов : Front: L R
    Частота : 48, как колыбельная песня, 0 КГц
    Битовая глубина : 16 бит
    Метод сжатия : С потерями
    Размер потока : 123 Мбайт (8%)
    Выравнивание : Разделение по промежуткам
    Продолжительность промежутка : 42 мс. Самое интересное в это истории, что об этом Кравчук ничего не знал. (1, в большинстве случаев, 00 видеокадр)
    Время предзагрузки промежутка : 500 ms
    Аудио #2
    Идентификатор : 2
    Формат : AC-3
    Формат/Информация : Audio Coding 3
    Расширение режима : CM (complete main)
    Идентификатор кодека : 2000
    Продолжительность : 1 ч. Это же восьмая вода на киселе. 29 м.
    Вид битрейта : Постоянный
    Битрейт : 192 Кбит/сек
    Канал(ы) : 2 канала(ов)
    Расположение каналов : Front: L R
    Частота : 48, привычно, 0 КГц
    Битовая глубина : 16 бит
    Метод сжатия : С потерями
    Размер потока : 123 Мбайт (8%)
    Выравнивание : Разделение по промежуткам
    Продолжительность промежутка : 42 мс. Это же восьмая вода на киселе. (1, словно музыка, 00 видеокадр)
    Время предзагрузки промежутка : 500 ms
    Скриншоты для ознакомления

    Релиз подготовил:Leon-masl
    Залил: leon-masl
    Размер скачиваемого торрента: 1.46 GB (1568983040 Bytes)

    Деньги, деньги, еще деньги/Больше денег/Mo Money (1992) WEB-DLRip от Leon-masl | A скачать через торрент бесплатно
    загрузка...
    Рейтинг →
     (голосов: 1, оценка 4/5, голосовать можно 1 раз )

    Другие торренты по теме:



      Комментарии (0):

      Информация

      Информация

        Посетители, находящиеся в группе Гости, не могут оставлять комментарии в данной новости.

        ↓ Меню



        ↓ Опрос

        А Вы добавили сайт в закладки?
        Да
        Не


        Top 10 за неделю (Фильмы)