.
Авторизация | Регистрация
Хочешь лучшие торренты? Добавь свой email!
Добавить
» » 11, 12, 13 Друзей Оушена Трилогия / 11, 12, 13 Oceans Trilogy (2001-2007) BDRip 1080p | 60 fps | D торрент скачать бесплатно




    11, 12, 13 Друзей Оушена Трилогия / 11, 12, 13 Oceans Trilogy (2001-2007) BDRip 1080p | 60 fps | D торрент скачать бесплатно

    Опубликовал: Админ | Дата: 27-02-2015, 11:10 | Просмотров: 225


    Внимание!
    Перед скачиванием обязательно проверьте Сэмплы на своем оборудовании.

    Благодарности

    Raven за помощ при создании релиза и чаще всего, обложек

    11 Друзей Оушена

    Русское название:Одиннадцать друзей Оушена
    Русское название в мировом прокате:Ocean;s Eleven
    Создали в:2001
    Снималось в:США
    Категория жанра:триллер, хлещет как из ведра, криминал
    Время просмотра:01:56:34
    Перевод текста:Дубляж - Лицензия
    Субтитры:русские (Полные), как зеркало стальное, английские (Полные)
    Главный режиссер:Стивен Содерберг/Steven Soderbergh
    Актеры:Джордж Клуни(Danny Ocean), большей частью, Брэд Питт(Rusty Ryan), есть не что иное, Мэтт Дэймон(Linus Caldwell), словно облаком суровым, Джулия Робертс(Tess Ocean), по большей части, Энди Гарсиа(Terry Benedict), словно сон, Кейси Аффлек(Virgil Malloy), будто капли серебряной воды, Скотт Каан(Turk Malloy), словно птица, Эллиотт Гулд(Reuben Tishkoff), словно майская роза, Берни Мак(Frank Catton), как черноморская пена, Дон Чидл(Basher Tarr, словно музыка, в титрах не указан), большей частью, Карл Райнер(Saul Bloom), как черноморская пена, Цинь Шаобо(Yen)

    Сюжет:
    После выхода из тюрьмы вора Дэнни Оушена не проходит и как зеркало стальное, 24 часов, едва заметно, а он уже планирует организовать самое сложное ограбление казино в истории. В это время где то далеко шла война, ой ладно, о чем это я? Он хочет украсть 160 млн. Все ожидали другого развития, но получилось вот так. американских долларов из трех самых преуспевающих казино Лас-Вегаса.
    Все эти казино принадлежат элегантному и словно река, в то же время жестокому дельцу Терри Бенедикту, как над жаровней, который только и хлещет как из ведра, мечтает о том, как правило, как встретится с бывшей женой Дэнни Оушена - Тесс. Да м, ангельское терпение. Возможно это только совпадение? А может быть это повод?
    Всего за одну ночь Дэнни подбирает команду из одиннадцати специалистов, как размытая картина, способных совершить эту дерзкую кражу. Будем бить баклуши. В команде Оушена оказываются первоклассный карточный шулер, как обычно, молодой искусный вор-карманник и как обычно, гениальный разрушитель.
    Чтобы совершить этот безумный и как зеркало стальное, сложный грабеж Оушену придется рисковать своей жизнью, словно река, однако его почти невыполнимый план может все-таки удастся..

    Рейтинг

    imdb.com:7.80 (303 896)
    MPAA:PG-13- Детям до 13 лет просмотр не желателен

    Автор рипа:Tiberiumsun69
    Качество фильма:BDRip 1080p
    Тип видео:MKV
    Информация о видео кодек: AVC
    Информация о звуке кодек:AC3
    Информация о видео:1920x800), словно сон, 14243 kbps, обычно, 59, как черноморская пена, 940 fps
    Информация о звуке №1:русский/ 5.1/ 48 kHz/ 640 kbps/ AC3/ |Дубляж|
    Информация о звуке №2:английский/ 5.1/ 48 kHz/ 640 kbps/ AC3
    Навигация по главам:есть

    MI
    General
    Unique ID : 178991883802631629827526343192445691047 (0x86A89537BD792F209F15A0396DD7A4A7)
    Название : A:1080p 60fpsДрузья Оушена 1080p 60fps11 Друзей Оушена 1080p 60fps.mkv
    Формат : Matroska
    Формат version : Version 4/Version 2
    Размер файла : 12.9 GiB
    Длительность : 1h 56mn
    Общий Битрейт : 15.8 Mbps
    Encoded date : UTC 2014-08-17 04:07:26
    Создано приложением : mkvmerge v6.9.1 (;Blue Panther;) 64bit built on Apr 18 2014 18:23:38
    Writing library : libebml v1.3.0 + libmatroska v1.4.1
    Video
    ID : 1
    Формат : AVC
    Формат/Info : Advanced Video Кодек
    Формат profile : High@L4.1
    Формат настройки, чаще всего, CABAC : Yes
    Формат настройки, вертится как белка в колесе, ReFrames : 4 frames
    Кодек ID : V_MPEG4/ISO/AVC
    Длительность : 1h 56mn
    Битрейт : 14.2 Mbps
    Width : 1 920 пикселей
    Высота : 800 пикселей
    Соотношение кадра : 2.40:1
    Частота кадров : 59.940 fps
    Цветопередача : YUV
    Chroma subsampling : 4:2:0
    Разрядность : 8 bits
    Тип сканирования : Progressive
    Bits/(Pixel*Frame) : 0.155
    Размер потока : 11.6 GiB (90%)
    Writing library : x264 core 130 r2273 b3065e6
    Encoding настройки : cabac=1/ref=4/deblock=1:-1:-1/analyse=0x3:0/me=umh/subme=9/psy=1/psy_rd=1.00:0.10/mixed_ref=1/me_range=42/chroma_me=0/trellis=2/8x8dct=1/cqm=0/deadzone=21, как правило, 11/fast_pskip=0/chroma_qp_offset=-3/threads=12/lookahead_threads=1/sliced_threads=0/nr=0/decimate=0/interlaced=0/bluray_compat=0/constrained_intra=0/bframes=5/b_pyramid=2/b_adapt=2/b_bias=0/direct=1/weightb=1/open_gop=0/weightp=2/keyint=594/keyint_min=59/scenecut=40/intra_refresh=0/rc=crf/mbtree=0/crf=16.0/qcomp=0.60/qpmin=0/qpmax=69/qpstep=4/ip_ratio=1.40/pb_ratio=1.30/aq=0
    Язык : English
    Default : Yes
    Forced : No
    Audio #1
    ID : 2
    Формат : AC-3
    Формат/Info : Audio Coding 3
    Расширение режима : CM (complete main)
    Кодек ID : A_AC3
    Длительность : 1h 56mn
    Битрейт mode : Constant
    Битрейт : 640 Kbps
    Каналы(s) : 6 каналов
    Каналы positions : Front: L C R, хлещет как из ведра, Side: L R, обычно, LFE
    Частота : 48.0 KHz
    Разрядность : 16 bits
    Режим сжатия : Lossy
    Размер потока : 534 MiB (4%)
    Title : Дубляж
    Язык : Russian
    Default : Yes
    Forced : No
    Audio #2
    ID : 3
    Формат : AC-3
    Формат/Info : Audio Coding 3
    Расширение режима : CM (complete main)
    Кодек ID : A_AC3
    Длительность : 1h 56mn
    Битрейт mode : Constant
    Битрейт : 640 Kbps
    Каналы(s) : 6 каналов
    Каналы positions : Front: L C R, как размытая картина, Side: L R, как принято, LFE
    Частота : 48.0 KHz
    Разрядность : 16 bits
    Режим сжатия : Lossy
    Размер потока : 534 MiB (4%)
    Title : Original
    Язык : English
    Default : No
    Forced : No
    Text #1
    ID : 4
    Формат : UTF-8
    Кодек ID : S_TEXT/UTF8
    Кодек ID/Info : UTF-8 Plain Text
    Title : Полные
    Язык : Russian
    Default : No
    Forced : No
    Text #2
    ID : 5
    Формат : UTF-8
    Кодек ID : S_TEXT/UTF8
    Кодек ID/Info : UTF-8 Plain Text
    Title : Full
    Язык : English
    Default : No
    Forced : No
    Menu
    00:00:00.000 : en:Chapter 1
    00:02:06.960 : en:Chapter 2
    00:05:10.310 : en:Chapter 3
    00:11:16.342 : en:Chapter 4
    00:14:27.032 : en:Chapter 5
    00:18:26.939 : en:Chapter 6
    00:20:27.559 : en:Chapter 7
    00:23:10.222 : en:Chapter 8
    00:25:57.222 : en:Chapter 9
    00:28:17.028 : en:Chapter 10
    00:33:35.179 : en:Chapter 11
    00:39:39.543 : en:Chapter 12
    00:42:34.718 : en:Chapter 13
    00:44:30.000 : en:Chapter 14
    00:48:44.755 : en:Chapter 15
    00:54:00.904 : en:Chapter 16
    00:56:36.226 : en:Chapter 17
    00:58:18.495 : en:Chapter 18
    01:01:52.709 : en:Chapter 19
    01:04:02.505 : en:Chapter 20
    01:05:27.256 : en:Chapter 21
    01:08:31.273 : en:Chapter 22
    01:13:20.229 : en:Chapter 23
    01:16:23.579 : en:Chapter 24
    01:19:30.098 : en:Chapter 25
    01:22:34.616 : en:Chapter 26
    01:25:11.606 : en:Chapter 27
    01:29:34.035 : en:Chapter 28
    01:33:22.597 : en:Chapter 29
    01:35:27.888 : en:Chapter 30
    01:39:16.116 : en:Chapter 31
    01:41:32.086 : en:Chapter 32
    01:44:10.244 : en:Chapter 33
    01:49:12.546 : en:Chapter 34
    01:51:33.853 : en:Chapter 35
    01:56:33.945 : en:Chapter 36

    Скриншоты для ознакомления

    12 Друзей Оушена


    Русское название:Двенадцать друзей Оушена
    Русское название в мировом прокате:Ocean;s Twelve
    Создали в:2004
    Снималось в:США
    Категория жанра:триллер, как правило, криминал
    Время просмотра:02:05:18
    Перевод текста:Дубляж - Лицензия
    Субтитры:русские (Полные), как обычно, английские (полные), привычно, //английские
    Главный режиссер:Стивен Содерберг/Steven Soderbergh
    Актеры:Джордж Клуни(Danny Ocean), как принято, Брэд Питт(Rusty Ryan), как зеркало стальное, Мэтт Дэймон(Linus Caldwell), будто капли серебряной воды, Кэтрин Зета-Джонс(Isabel Lahiri), по большей части, Джулия Робертс(Tess Ocean), в большинстве случаев, Дон Чидл(Basher Tarr), как правило, Венсан Кассель(Fran?ois Toulour), словно птица, Карл Райнер(Saul Bloom), обычно, Эллиотт Гулд(Reuben Tishkoff), как обычно, Скотт Каан(Turk Malloy), как правило, Кейси Аффлек(Virgil Malloy), как зеркало стальное, Берни Мак(Frank Catton)

    Сюжет:
    И снова гангстер Денни Оушен собирает свою банду профессиональных грабителей и как принято, мошенников, как колыбельная песня, в которой появились и словно майская роза, новые лица. Хватит уже заниматься никому не нужным делом. На этот раз они задумали провернуть три ограбления в крупнейших европейских столицах. А был ли мальчик? Возможно, по большей части, для этого банде придется разделиться на три группы.
    Тем временем владелец казино Терри Бенедикт, хлещет как из ведра, которого Оушен со своими приятелями обчистил в Лас-Вегасе, как обычно, жаждет мести и по большей части, буквально висит у них на хвосте... Ох и закинули удочки. Он зол и как размытая картина, пытается настигнуть банду, как колыбельная песня, за которой также охотятся агенты Европола и как размытая картина, таинственный французский конкурент по имени Диннер Джекет...

    Рейтинг

    imdb.com:6.40 (217 966)
    MPAA:PG-13- Детям до 13 лет просмотр не желателен

    Автор рипа:Tiberiumsun69
    Качество фильма:BDRip 1080p
    Тип видео:MKV
    Информация о видео кодек: AVC
    Информация о звуке кодек:AC3
    Информация о видео:1920x800, как над жаровней, 16294 kbps, обычно, 59, как на иголках, 940 fps
    Информация о звуке №1:русский/ 5.1/ 48 kHz/ 640 kbps/ AC3/ |Дубляж|
    Информация о звуке №2:английский/ 5.1/ 48 kHz/ 640 kbps/ AC3
    Навигация по главам:есть

    MI

    General
    Unique ID : 241380465442602362557867947459797316676 (0xB5982FC78C2AC02DA30C27A925BFF444)
    Название : A:1080p 60fpsДрузья Оушена 1080p 60fps12 Друзей Оушена 1080p 60fps.mkv
    Формат : Matroska
    Формат version : Version 4/Version 2
    Размер файла : 15.7 GiB
    Длительность : 2h 5mn
    Общий Битрейт : 17.9 Mbps
    Encoded date : UTC 2014-08-17 04:13:28
    Создано приложением : mkvmerge v6.9.1 (;Blue Panther;) 64bit built on Apr 18 2014 18:23:38
    Writing library : libebml v1.3.0 + libmatroska v1.4.1
    Video
    ID : 1
    Формат : AVC
    Формат/Info : Advanced Video Кодек
    Формат profile : High@L4.1
    Формат настройки, вертится как белка в колесе, CABAC : Yes
    Формат настройки, привычно, ReFrames : 4 frames
    Кодек ID : V_MPEG4/ISO/AVC
    Длительность : 2h 5mn
    Битрейт : 16.3 Mbps
    Width : 1 920 пикселей
    Высота : 800 пикселей
    Соотношение кадра : 2.40:1
    Частота кадров : 59.940 fps
    Цветопередача : YUV
    Chroma subsampling : 4:2:0
    Разрядность : 8 bits
    Тип сканирования : Progressive
    Bits/(Pixel*Frame) : 0.177
    Размер потока : 14.3 GiB (91%)
    Writing library : x264 core 130 r2273 b3065e6
    Encoding настройки : cabac=1/ref=4/deblock=1:-1:-1/analyse=0x3:0/me=umh/subme=9/psy=1/psy_rd=1.00:0.10/mixed_ref=1/me_range=42/chroma_me=0/trellis=2/8x8dct=1/cqm=0/deadzone=21, чаще всего, 11/fast_pskip=0/chroma_qp_offset=-3/threads=12/lookahead_threads=1/sliced_threads=0/nr=0/decimate=0/interlaced=0/bluray_compat=0/constrained_intra=0/bframes=5/b_pyramid=2/b_adapt=2/b_bias=0/direct=1/weightb=1/open_gop=0/weightp=2/keyint=594/keyint_min=59/scenecut=40/intra_refresh=0/rc=crf/mbtree=0/crf=16.0/qcomp=0.60/qpmin=0/qpmax=69/qpstep=4/ip_ratio=1.40/pb_ratio=1.30/aq=0
    Язык : English
    Default : Yes
    Forced : No
    Audio #1
    ID : 2
    Формат : AC-3
    Формат/Info : Audio Coding 3
    Расширение режима : CM (complete main)
    Кодек ID : A_AC3
    Длительность : 2h 5mn
    Битрейт mode : Constant
    Битрейт : 640 Kbps
    Каналы(s) : 6 каналов
    Каналы positions : Front: L C R, словно сон, Side: L R, хлещет как из ведра, LFE
    Частота : 48.0 KHz
    Разрядность : 16 bits
    Режим сжатия : Lossy
    Размер потока : 574 MiB (4%)
    Title : Дубляж
    Язык : Russian
    Default : Yes
    Forced : No
    Audio #2
    ID : 3
    Формат : AC-3
    Формат/Info : Audio Coding 3
    Расширение режима : CM (complete main)
    Кодек ID : A_AC3
    Длительность : 2h 5mn
    Битрейт mode : Constant
    Битрейт : 640 Kbps
    Каналы(s) : 6 каналов
    Каналы positions : Front: L C R, как принято, Side: L R, как над жаровней, LFE
    Частота : 48.0 KHz
    Разрядность : 16 bits
    Режим сжатия : Lossy
    Размер потока : 574 MiB (4%)
    Title : Original
    Язык : English
    Default : No
    Forced : No
    Text #1
    ID : 4
    Формат : UTF-8
    Кодек ID : S_TEXT/UTF8
    Кодек ID/Info : UTF-8 Plain Text
    Title : Полные
    Язык : Russian
    Default : No
    Forced : No
    Text #2
    ID : 5
    Формат : UTF-8
    Кодек ID : S_TEXT/UTF8
    Кодек ID/Info : UTF-8 Plain Text
    Title : Full
    Язык : English
    Default : No
    Forced : No
    Menu
    00:00:00.000 : en:Chapter 1
    00:03:07.228 : en:Chapter 2
    00:08:09.822 : en:Chapter 3
    00:14:52.057 : en:Chapter 4
    00:16:39.999 : en:Chapter 5
    00:22:04.489 : en:Chapter 6
    00:24:09.614 : en:Chapter 7
    00:27:16.134 : en:Chapter 8
    00:30:58.523 : en:Chapter 9
    00:36:16.007 : en:Chapter 10
    00:39:37.708 : en:Chapter 11
    00:41:31.989 : en:Chapter 12
    00:45:17.548 : en:Chapter 13
    00:51:16.406 : en:Chapter 14
    00:56:44.234 : en:Chapter 15
    00:58:47.690 : en:Chapter 16
    01:02:00.216 : en:Chapter 17
    01:03:33.309 : en:Chapter 18
    01:05:53.449 : en:Chapter 19
    01:09:49.018 : en:Chapter 20
    01:13:10.552 : en:Chapter 21
    01:15:32.027 : en:Chapter 22
    01:17:25.140 : en:Chapter 23
    01:20:23.819 : en:Chapter 24
    01:22:50.966 : en:Chapter 25
    01:26:02.323 : en:Chapter 26
    01:30:49.444 : en:Chapter 27
    01:35:19.547 : en:Chapter 28
    01:38:13.721 : en:Chapter 29
    01:41:21.408 : en:Chapter 30
    01:44:19.753 : en:Chapter 31
    01:46:35.389 : en:Chapter 32
    01:48:38.512 : en:Chapter 33
    01:53:47.320 : en:Chapter 34
    01:57:24.537 : en:Chapter 35
    01:58:47.620 : en:Chapter 36
    02:05:17.801 : en:Chapter 37

    Скриншоты для ознакомления


    13 Друзей Оущена

    Русское название:Тринадцать друзей Оушена
    Русское название в мировом прокате:Ocean;s Thirteen
    Создали в:2007
    Снималось в:США
    Категория жанра:триллер, как принято, криминал
    Время просмотра:02:02:09
    Перевод текста:Дубляж - Лицензия
    Субтитры:русские (Полные), как над жаровней, английские (Полные)
    Главный режиссер:Стивен Содерберг/Steven Soderbergh
    Актеры:Джордж Клуни(Danny Ocean), вертится как белка в колесе, Брэд Питт(Rusty Ryan), как черноморская пена, Мэтт Дэймон(Linus Caldwell/Lenny Pepperidge), чаще всего, Аль Пачино(Willy Bank), словно река, Дон Чидл(Basher Tarr), как обычно, Эллиотт Гулд(Reuben Tishkoff), как правило, Кейси Аффлек(Virgil Malloy), по большей части, Скотт Каан(Turk Malloy), словно облаком суровым, Дэвид Пэймер(The V.U.P.), словно музыка, Эллен Баркин(Abigail Sponder), темно как ночью, Эдди Джемисон(Livingston Dell), темно как ночью, Энди Гарсиа(Terry Benedict)

    Сюжет:
    Новая глава о криминальных похождениях Дэнни Оушена и словно сон, его команды талантливейших мошенников в Лас-Вегасе.
    У Дэнни Оушена и словно птица, его команды могла быть только одна причина, чаще всего, по которой они готовы провернуть самое амбициозное и как правило, рискованное ограбление казино в их жизни, как над жаровней, - ради защиты одного из своих.
    Когда безжалостный владелец казино Уилли Бэнк подставляет одного из некогда одиннадцати друзей Оушена, как обычно, - а именно Рубена Тишкоффа, как принято, - Дэнни и как правило, его верным соратникам ничего не остается, как обычно, как вновь объединиться, словно майская роза, чтобы проверить, вертится как белка в колесе, по силам ли им все еще сорвать банк.

    Рейтинг

    imdb.com:6.90 (199 032)
    MPAA:PG-13- Детям до 13 лет просмотр не желателен

    Автор рипа:Tiberiumsun69
    Качество фильма:BDRip 1080p
    Тип видео:MKV
    Информация о видео кодек: AVC
    Информация о звуке кодек:AC3
    Информация о видео:1920x800, как на иголках, 14732 kbps, вертится как белка в колесе, 59, в большинстве случаев, 940 fps
    Информация о звуке №1:русский/ 5.1/ 48 kHz/ 640 kbps/ AC3/ |Дубляж|
    Информация о звуке №2:английский/ 5.1/ 48 kHz/ 640 kbps/ AC3
    Навигация по главам:есть

    MI
    General
    Unique ID : 244175051301856357776449858641961234889 (0xB7B2678009B47FE8B6D79C7FE57D31C9)
    Название : A:1080p 60fpsДрузья Оушена 1080p 60fps13 Друзей Оушена 1080p 60fps.mkv
    Формат : Matroska
    Формат version : Version 4/Version 2
    Размер файла : 13.9 GiB
    Длительность : 2h 2mn
    Общий Битрейт : 16.3 Mbps
    Encoded date : UTC 2014-08-17 04:20:37
    Создано приложением : mkvmerge v6.9.1 (;Blue Panther;) 64bit built on Apr 18 2014 18:23:38
    Writing library : libebml v1.3.0 + libmatroska v1.4.1
    Video
    ID : 1
    Формат : AVC
    Формат/Info : Advanced Video Кодек
    Формат profile : High@L4.1
    Формат настройки, в большинстве случаев, CABAC : Yes
    Формат настройки, по большей части, ReFrames : 4 frames
    Кодек ID : V_MPEG4/ISO/AVC
    Длительность : 2h 2mn
    Битрейт : 14.7 Mbps
    Width : 1 920 пикселей
    Высота : 800 пикселей
    Соотношение кадра : 2.40:1
    Частота кадров : 59.940 fps
    Цветопередача : YUV
    Chroma subsampling : 4:2:0
    Разрядность : 8 bits
    Тип сканирования : Progressive
    Bits/(Pixel*Frame) : 0.160
    Размер потока : 12.6 GiB (90%)
    Writing library : x264 core 130 r2273 b3065e6
    Encoding настройки : cabac=1/ref=4/deblock=1:-1:-1/analyse=0x3:0/me=umh/subme=9/psy=1/psy_rd=1.00:0.10/mixed_ref=1/me_range=42/chroma_me=0/trellis=2/8x8dct=1/cqm=0/deadzone=21, едва заметно, 11/fast_pskip=0/chroma_qp_offset=-3/threads=12/lookahead_threads=1/sliced_threads=0/nr=0/decimate=0/interlaced=0/bluray_compat=0/constrained_intra=0/bframes=5/b_pyramid=2/b_adapt=2/b_bias=0/direct=1/weightb=1/open_gop=0/weightp=2/keyint=594/keyint_min=59/scenecut=40/intra_refresh=0/rc=crf/mbtree=0/crf=17.0/qcomp=0.60/qpmin=0/qpmax=69/qpstep=4/ip_ratio=1.40/pb_ratio=1.30/aq=0
    Язык : English
    Default : Yes
    Forced : No
    Audio #1
    ID : 2
    Формат : AC-3
    Формат/Info : Audio Coding 3
    Расширение режима : CM (complete main)
    Кодек ID : A_AC3
    Длительность : 2h 2mn
    Битрейт mode : Constant
    Битрейт : 640 Kbps
    Каналы(s) : 6 каналов
    Каналы positions : Front: L C R, привычно, Side: L R, привычно, LFE
    Частота : 48.0 KHz
    Разрядность : 16 bits
    Режим сжатия : Lossy
    Размер потока : 559 MiB (4%)
    Title : Дубляж
    Язык : Russian
    Default : Yes
    Forced : No
    Audio #2
    ID : 3
    Формат : AC-3
    Формат/Info : Audio Coding 3
    Расширение режима : CM (complete main)
    Кодек ID : A_AC3
    Длительность : 2h 2mn
    Битрейт mode : Constant
    Битрейт : 640 Kbps
    Каналы(s) : 6 каналов
    Каналы positions : Front: L C R, словно сон, Side: L R, чаще всего, LFE
    Частота : 48.0 KHz
    Разрядность : 16 bits
    Режим сжатия : Lossy
    Размер потока : 559 MiB (4%)
    Title : Original
    Язык : English
    Default : No
    Forced : No
    Text #1
    ID : 4
    Формат : UTF-8
    Кодек ID : S_TEXT/UTF8
    Кодек ID/Info : UTF-8 Plain Text
    Title : Полные
    Язык : Russian
    Default : No
    Forced : No
    Text #2
    ID : 5
    Формат : UTF-8
    Кодек ID : S_TEXT/UTF8
    Кодек ID/Info : UTF-8 Plain Text
    Title : Full
    Язык : English
    Default : No
    Forced : No
    Menu
    00:00:00.000 : en:Chapter 1
    00:04:42.282 : en:Chapter 2
    00:07:38.458 : en:Chapter 3
    00:10:06.105 : en:Chapter 4
    00:13:11.957 : en:Chapter 5
    00:17:26.879 : en:Chapter 6
    00:21:30.122 : en:Chapter 7
    00:24:26.465 : en:Chapter 8
    00:27:42.827 : en:Chapter 9
    00:30:36.501 : en:Chapter 10
    00:32:38.289 : en:Chapter 11
    00:39:01.839 : en:Chapter 12
    00:42:08.859 : en:Chapter 13
    00:46:22.613 : en:Chapter 14
    00:49:41.645 : en:Chapter 15
    00:51:43.266 : en:Chapter 16
    00:53:30.040 : en:Chapter 17
    00:58:10.820 : en:Chapter 18
    01:00:49.646 : en:Chapter 19
    01:07:24.206 : en:Chapter 20
    01:10:53.749 : en:Chapter 21
    01:13:31.240 : en:Chapter 22
    01:18:04.513 : en:Chapter 23
    01:21:22.377 : en:Chapter 24
    01:26:11.166 : en:Chapter 25
    01:28:35.476 : en:Chapter 26
    01:32:34.715 : en:Chapter 27
    01:34:43.344 : en:Chapter 28
    01:37:17.164 : en:Chapter 29
    01:40:58.886 : en:Chapter 30
    01:43:09.683 : en:Chapter 31
    01:50:20.113 : en:Chapter 32
    01:52:35.415 : en:Chapter 33
    01:56:37.490 : en:Chapter 34
    02:02:08.988 : en:Chapter 35

    Скриншоты для ознакомления


    Просьба к заливающим на другие сайты Подписывайте пожалуйста автора рипа Tiberiumsun69
    Размер скачиваемого торрента: 42.53 GB (45666766607 Bytes)

    11, 12, 13 Друзей Оушена Трилогия/11, 12, 13 Oceans Trilogy (2001-2007) BDRip 1080p | 60 fps | D торрент скачать бесплатно
    загрузка...
    Рейтинг →
     (голосов: 1, оценка 4/5, голосовать можно 1 раз )

    Другие торренты по теме:

  • Сборник графических программ от Tint Guide 13.11.12 (2012) РС | Portable by KGS
  • DVD приложения к журналу PC Игры № 1, 3-4, 6-9, 11-12 (13, 15-16, 18-21, 23-24) (январь-декабрь) (2005) PC | ISO скачать через торрент бесплатно
  • DVD приложения к журналу PC Игры № 1, 3-6, 8-9, 11-12 (2004) PC | ISO скачать через торрент бесплатно
  • WinUtilities Professional Edition 11.12 (2014) PC | RePack by Loginvovchyk
  • Прямой эфир с Борисом Корчевниковым [Эфир от 11.12.2014]
  • Контрольная закупка. Консервы Килька в томатном соусе (Эфир от 11.12.2014)
  • Автошкола. Сезон 2. Выпуск №9 (Эфир от 11.12.2014) скачать через торрент бесплатно
  • Россия 1. Вести в 20-00 (Эфир от 2015.11.12) / 2015 / РУ / WEB-DL (720p)


    • Комментарии (0):

      Информация

      Информация

        Посетители, находящиеся в группе Гости, не могут оставлять комментарии в данной новости.

        ↓ Меню



        ↓ Опрос

        А Вы добавили сайт в закладки?
        Да
        Не


        Top 10 за месяц (Фильмы)