.
Авторизация | Регистрация
» » Война миров Z / World War Z (2013) BDRip 1080p | 60 fps | D скачать через торрент бесплатно




    Война миров Z / World War Z (2013) BDRip 1080p | 60 fps | D скачать через торрент бесплатно

    Опубликовал: Админ | Дата: 27-02-2015, 11:10 | Просмотров: 186


    Русское название:Война миров Z
    Русское название в мировом прокате:World War Z
    Создали в:2013
    Снималось в:США
    Категория жанра:ужасы, будто капли серебряной воды, фантастика, как на иголках, боевик, как зеркало стальное, триллер, как размытая картина, приключения
    Время просмотра:02:20:03
    Перевод текста:Дубляж + Альтернативный дубляж на вставки
    Субтитры:русские (Форсированные), привычно, русские (Полные), словно майская роза, английские (форсированные), в большинстве случаев, английские (полные)
    Главный режиссер:Марк Форстер/Marc Forster
    Актеры:Брэд Питт(Gerry Lane), словно облаком суровым, Мирей Инос(Karin Lane), как колыбельная песня, Даниэла Картес(Segen), едва заметно, Джеймс Бэдж Дэйл(Captain Speke), как обычно, Люди Букен(Jurgen Warmbrunn), чаще всего, Мэттью Фокс(Parajumper), большей частью, Фана Мокоэна(Thierry Umutoni), словно облаком суровым, Дэвид Морс(Ex-CIA Agent), словно сон, Элиес Габел(Andrew Fassbach), вертится как белка в колесе, Питер Капальди(W.H.O. Да м, ангельское терпение. Doctor), в большинстве случаев, Пьерфранческо Фавино(W.H.O. Это же восьмая вода на киселе. Doctor), темно как ночью, Рут Негга(W.H.O. В это время где то далеко шла война, ой ладно, о чем это я? Doctor)

    Сюжет:
    Сотрудник ООН Джерри Лэйн наперегонки со временем пытается остановить заражение, большей частью, способное полностью истребить человечество.

    Рейтинг

    imdb.com:7.10 (320 091)
    MPAA:PG-13- Детям до 13 лет просмотр не желателен

    Автор рипа:Tiberiumsun69

    Качество фильма:BDRip 1080p
    Тип видео:MKV
    Информация о видео кодек: AVC
    Информация о звуке кодек:AC3
    Информация о видео:1920x800, словно река, 10363 kbps, как зеркало стальное, 59, в большинстве случаев, 940 fps
    Информация о звуке №1:русский/ 5.1/ 48 kHz/ 640 kbps/ AC3/ |Дубляж|
    Информация о звуке №2:английский/ 5.1/ 48 kHz/ 640 kbps/ AC3
    Навигация по главам:есть

    MI
    General
    Unique ID : 235191831242581085127679782947033390973 (0xB0F04C8E505288B69B8EF53D85071F7D)
    Название : A:1080p 60fpsВойна миров Z 1080p 60fps.mkv
    Формат : Matroska
    Формат version : Version 4/Version 2
    Размер файла : 10.2 GiB
    Длительность : 2h 3mn
    Общий Битрейт : 11.9 Mbps
    Encoded date : UTC 2014-08-17 01:57:08
    Создано приложением : mkvmerge v6.9.1 (;Blue Panther;) 64bit built on Apr 18 2014 18:23:38
    Writing library : libebml v1.3.0 + libmatroska v1.4.1
    Video
    ID : 1
    Формат : AVC
    Формат/Info : Advanced Video Кодек
    Формат profile : High@L4.1
    Формат настройки, как принято, CABAC : Yes
    Формат настройки, словно музыка, ReFrames : 4 frames
    Кодек ID : V_MPEG4/ISO/AVC
    Длительность : 2h 3mn
    Битрейт : 10.4 Mbps
    Width : 1 920 пикселей
    Высота : 800 пикселей
    Соотношение кадра : 2.40:1
    Частота кадров : 59.940 fps
    Цветопередача : YUV
    Chroma subsampling : 4:2:0
    Разрядность : 8 bits
    Тип сканирования : Progressive
    Bits/(Pixel*Frame) : 0.113
    Размер потока : 8.91 GiB (87%)
    Writing library : x264 core 130 r2273 b3065e6
    Encoding настройки : cabac=1/ref=4/deblock=1:-1:-1/analyse=0x3:0/me=umh/subme=9/psy=1/psy_rd=1.00:0.10/mixed_ref=1/me_range=42/chroma_me=0/trellis=2/8x8dct=1/cqm=0/deadzone=21, вертится как белка в колесе, 11/fast_pskip=0/chroma_qp_offset=-3/threads=12/lookahead_threads=1/sliced_threads=0/nr=0/decimate=0/interlaced=0/bluray_compat=0/constrained_intra=0/bframes=5/b_pyramid=2/b_adapt=2/b_bias=0/direct=1/weightb=1/open_gop=0/weightp=2/keyint=594/keyint_min=59/scenecut=40/intra_refresh=0/rc=crf/mbtree=0/crf=14.0/qcomp=0.60/qpmin=0/qpmax=69/qpstep=4/ip_ratio=1.40/pb_ratio=1.30/aq=0
    Язык : English
    Default : Yes
    Forced : No
    Audio #1
    ID : 2
    Формат : AC-3
    Формат/Info : Audio Coding 3
    Расширение режима : CM (complete main)
    Кодек ID : A_AC3
    Длительность : 2h 3mn
    Битрейт mode : Constant
    Битрейт : 640 Kbps
    Каналы(s) : 6 каналов
    Каналы positions : Front: L C R, по большей части, Side: L R, чаще всего, LFE
    Частота : 48.0 KHz
    Разрядность : 16 bits
    Режим сжатия : Lossy
    Размер потока : 563 MiB (5%)
    Default : Yes
    Forced : No
    Audio #2
    ID : 3
    Формат : AC-3
    Формат/Info : Audio Coding 3
    Расширение режима : CM (complete main)
    Кодек ID : A_AC3
    Длительность : 2h 3mn
    Битрейт mode : Constant
    Битрейт : 640 Kbps
    Каналы(s) : 6 каналов
    Каналы positions : Front: L C R, в большинстве случаев, Side: L R, по большей части, LFE
    Частота : 48.0 KHz
    Разрядность : 16 bits
    Режим сжатия : Lossy
    Размер потока : 563 MiB (5%)
    Default : No
    Forced : No
    Text #1
    ID : 4
    Формат : UTF-8
    Кодек ID : S_TEXT/UTF8
    Кодек ID/Info : UTF-8 Plain Text
    Title : Форсированные
    Язык : Russian
    Default : Yes
    Forced : No
    Text #2
    ID : 5
    Формат : UTF-8
    Кодек ID : S_TEXT/UTF8
    Кодек ID/Info : UTF-8 Plain Text
    Title : Полные
    Язык : Russian
    Default : No
    Forced : No
    Text #3
    ID : 6
    Формат : UTF-8
    Кодек ID : S_TEXT/UTF8
    Кодек ID/Info : UTF-8 Plain Text
    Title : Forced
    Язык : English
    Default : No
    Forced : No
    Text #4
    ID : 7
    Формат : UTF-8
    Кодек ID : S_TEXT/UTF8
    Кодек ID/Info : UTF-8 Plain Text
    Title : Full
    Язык : English
    Default : No
    Forced : No
    Menu
    00:00:00.000 : :Chapter 01
    00:05:05.179 : :Chapter 02
    00:13:53.999 : :Chapter 03
    00:22:43.195 : :Chapter 04
    00:29:46.034 : :Chapter 05
    00:35:21.494 : :Chapter 06
    00:42:23.457 : :Chapter 07
    00:52:37.946 : :Chapter 08
    00:58:53.821 : :Chapter 09
    01:07:18.868 : :Chapter 10
    01:15:11.757 : :Chapter 11
    01:24:02.037 : :Chapter 12
    01:29:08.801 : :Chapter 13
    01:34:50.518 : :Chapter 14
    01:43:45.469 : :Chapter 15
    01:52:17.981 : :Chapter 16
    01:55:51.653 : :Chapter 17

    Скриншоты для ознакомления

    Просьба к заливающим на другие сайты Подписывайте пожалуйста автора рипа Tiberiumsun69
    Размер скачиваемого торрента: 10.21 GB (10965098673 Bytes)

    Война миров Z/World War Z (2013) BDRip 1080p | 60 fps | D скачать через торрент бесплатно
    загрузка...
    Рейтинг →
     (голосов: 1, оценка 3/5, голосовать можно 1 раз )

    Другие торренты по теме:



      Комментарии (0):

      Информация

      Информация

        Посетители, находящиеся в группе Гости, не могут оставлять комментарии в данной новости.

        ↓ Меню



        ↓ Опрос

        А Вы добавили сайт в закладки?
        Да
        Не


        Top 10 за неделю (Фильмы)