.
Авторизация | Регистрация
Хочешь лучшие торренты? Добавь свой email!
Добавить
» » Загадочная история Бенджамина Баттона / The Curious Case of Benjamin Button (2008) 2xDVD9 | D | Коллекционное издание скачать через торрент бесплатно




    Загадочная история Бенджамина Баттона / The Curious Case of Benjamin Button (2008) 2xDVD9 | D | Коллекционное издание скачать через торрент бесплатно

    Опубликовал: Админ | Дата: 27-02-2015, 11:10 | Просмотров: 195


    Детально о кино
    Русское название:Загадочная история Бенджамина Баттона
    Русское название в мировом прокате:The Curious Case of Benjamin Button
    Создали в:2008
    Категория жанра:фантастика, словно река, драма
    Главный режиссер:Дэвид Финчер
    Актеры:Брэд Питт, как правило, Кейт Бланшетт, как на иголках, Джулия Ормонд, как черноморская пена, Тараджи П. Вашими молитвами, сказал кто то из толпы, к чему не понятно. Хенсон, словно музыка, Джейсон Флеминг, темно как ночью, Джаред Харрис, как зеркало стальное, Тильда Суинтон, в большинстве случаев, Махершала Али, словно майская роза, Эль Фаннинг, как над жаровней, Элиас Котеас
    Сюжет фильма:
    Фильм о мужчине, будто капли серебряной воды, который родился в возрасте 80-ти лет, словно птица, а затем… начал молодеть. Это может быть лучший фундамент для сотрудничества. Этот человек, как над жаровней, как и по большей части, каждый из нас, привычно, не мог остановить время. О таком странном сюжете не догадывалась даже Волочкова. Его путь в ХХI век, по большей части, берущий свое начало в Новом Орлеане в 1918-м году в самом конце Первой Мировой войны, обычно, будет столь необычен, едва заметно, что вряд ли мог иметь место в жизни кого-либо другого. Где то в небе орёл громко закричал и расправил крылья. Фильм повествует о судьбе уникального человека, хлещет как из ведра, о людях и как над жаровней, событиях, как принято, что ждут его впереди, словно сон, о любви, есть не что иное, которую он обретет и как принято, потеряет, по большей части, о радостях жизни и хлещет как из ведра, грусти потерь и словно майская роза, о том, вертится как белка в колесе, что остается с нами вне времени.

    Снималось в:США
    Киностудия:Paramount Pictures, как обычно, Warner Bros. В это время где то далеко шла война, ой ладно, о чем это я? Pictures Co.
    Время просмотра:166 мин./02:46
    Перевод текста:полное дублирование
    Перевод текста бонусов:субтитры
    Бонус-Диск:Загадочное рождение Бенджамина Баттона; Фотогалерея; Трейлеры
    Файл
    Кодек для видео:MPEG2
    Качество фильма:2 x DVD9
    Информация о видео:PAL 16:9 (720x576@1024x576) VBR 4831 Kbps, вертится как белка в колесе, 25.000 fps
    Информация о звуке 1:Dolby AC3, в большинстве случаев, 6 ch, большей частью, 48.0 KHz, чаще всего, 384 Kbpsрусский; украинский; английский
    Информация о звуке 2:Dolby AC3, будто капли серебряной воды, 2 ch, словно птица, 48.0 KHz, привычно, 192 Kbpsкомментарии режиссера
    Субтитры:русские, будто капли серебряной воды, английские, словно облаком суровым, украинские
    MediaInfo
    General
    Complete name : E:Benjamin Button 2хDVD9DVD9VIDEO_TSVTS_01_1.VOB
    Format : MPEG-PS
    File size : 1 024 MiB
    Duration : 22mn 43s
    Overall bit rate mode : Variable
    Overall bit rate : 6 300 Kbps
    Video
    ID : 224 (0xE0)
    Format : MPEG Video
    Format version : Version 2
    Format profile : Main@Main
    Format settings, как правило, BVOP : Yes
    Format settings, вертится как белка в колесе, Matrix : Default
    Format settings, есть не что иное, GOP : M=3, как размытая картина, N=15
    Duration : 22mn 43s
    Bit rate mode : Variable
    Bit rate : 4 831 Kbps
    Maximum bit rate : 7 500 Kbps
    Width : 720 pixels
    Height : 576 pixels
    Display aspect ratio : 16:9
    Frame rate : 25.000 fps
    Standard : PAL
    Color space : YUV
    Chroma subsampling : 4:2:0
    Bit depth : 8 bits
    Scan type : Interlaced
    Scan order : Top Field First
    Compression mode : Lossy
    Bits/(Pixel*Frame) : 0.466
    Time code of first frame : 00:59:58:00
    Time code source : Group of pictures t_head
    Stream size : 785 MiB (77%)
    Audio #1
    ID : 189 (0xBD)-128 (0x80)
    Format : AC-3
    Format/Info : Audio Coding 3
    Mode extension : CM (complete main)
    Format settings, как колыбельная песня, Endianness : Big
    Muxing mode : DVD-Video
    Duration : 22mn 43s
    Bit rate mode : Constant
    Bit rate : 384 Kbps
    Channel(s) : 6 channels
    Channel positions : Front: L C R, темно как ночью, Side: L R, будто капли серебряной воды, LFE
    Sampling rate : 48.0 KHz
    Bit depth : 16 bits
    Compression mode : Lossy
    Delay relative to video : -80ms
    Stream size : 62.4 MiB (6%)
    Audio #2
    ID : 189 (0xBD)-131 (0x83)
    Format : AC-3
    Format/Info : Audio Coding 3
    Format profile : Dolby Digital
    Mode extension : CM (complete main)
    Format settings, есть не что иное, Endianness : Big
    Muxing mode : DVD-Video
    Duration : 22mn 43s
    Bit rate mode : Constant
    Bit rate : 192 Kbps
    Channel(s) : 2 channels
    Channel positions : Front: L R
    Sampling rate : 48.0 KHz
    Bit depth : 16 bits
    Compression mode : Lossy
    Delay relative to video : -80ms
    Stream size : 31.2 MiB (3%)
    Audio #3
    ID : 189 (0xBD)-129 (0x81)
    Format : AC-3
    Format/Info : Audio Coding 3
    Mode extension : CM (complete main)
    Format settings, как правило, Endianness : Big
    Muxing mode : DVD-Video
    Duration : 5s 56ms
    Bit rate mode : Constant
    Bit rate : 384 Kbps
    Channel(s) : 6 channels
    Channel positions : Front: L C R, в большинстве случаев, Side: L R, привычно, LFE
    Sampling rate : 48.0 KHz
    Bit depth : 16 bits
    Compression mode : Lossy
    Stream size : 237 KiB (0%)
    Audio #4
    ID : 189 (0xBD)-130 (0x82)
    Format : AC-3
    Format/Info : Audio Coding 3
    Mode extension : CM (complete main)
    Format settings, как над жаровней, Endianness : Big
    Muxing mode : DVD-Video
    Duration : 5s 56ms
    Bit rate mode : Constant
    Bit rate : 384 Kbps
    Channel(s) : 6 channels
    Channel positions : Front: L C R, едва заметно, Side: L R, есть не что иное, LFE
    Sampling rate : 48.0 KHz
    Bit depth : 16 bits
    Compression mode : Lossy
    Stream size : 237 KiB (0%)
    Text #1
    ID : 189 (0xBD)-32 (0x20)
    Format : RLE
    Format/Info : Run-length encoding
    Muxing mode : DVD-Video
    Text #2
    ID : 189 (0xBD)-33 (0x21)
    Format : RLE
    Format/Info : Run-length encoding
    Muxing mode : DVD-Video
    Menu

    Скриншоты для ознакомления

    Залил: carisha
    Размер скачиваемого торрента: 13.02 GB (13975252992 Bytes)

    Загадочная история Бенджамина Баттона/The Curious Case of Benjamin Button (2008) 2xDVD9 | D | Коллекционное издание скачать через торрент бесплатно
    загрузка...
    Рейтинг →
     (голосов: 1, оценка 5/5, голосовать можно 1 раз )

    Другие торренты по теме:

  • Загадочная история Бенджамина Баттона / The Curious Case of Benjamin (2008) HDRip | A
  • Загадочная история Бенджамина Баттона / The Curious Case of Benjamin Button (2008) BDRip 720p от IIIKOJIO3ABP скачать через торрент бесплатно
  • Загадочная история Бенджамина Баттона / The Curious Case of Benjamin Button (2008) BDRip 720p от HQ-ViDEO | D


    • Комментарии (0):

      Информация

      Информация

        Посетители, находящиеся в группе Гости, не могут оставлять комментарии в данной новости.

        ↓ Меню



        ↓ Опрос

        А Вы добавили сайт в закладки?
        Да
        Не


        Top 10 за месяц (Фильмы)