.
Авторизация | Регистрация
» » Проект Альфа / Яблочное зёрнышко Альфа / Appleseed Alpha (2014) BDRip 720p | iTunes скачать через торрент бесплатно




    Проект Альфа / Яблочное зёрнышко Альфа / Appleseed Alpha (2014) BDRip 720p | iTunes скачать через торрент бесплатно

    Опубликовал: Админ | Дата: 27-02-2015, 11:10 | Просмотров: 231


    Детально о кино
    Русское название: Проект Альфа/Яблочное зёрнышко Альфа
    Русское название в мировом прокате: Appleseed Alpha
    Создали в: 2014
    Категория жанра: аниме, словно сон, мультфильм, словно музыка, приключения
    Главный режиссер: Синдзи Арамаки
    Актеры:Люси Кристиан, как обычно, Дэвид Матранга, как размытая картина, Элизабет Бунч, едва заметно, Вендель Калверт, словно птица, Адам Гиббс, будто капли серебряной воды, Крис Хатчинсон, темно как ночью, Брина Паленсия, вертится как белка в колесе, Джош Шелтз
    Сюжет фильма:Действие посвящено боевой биографии Дюнан и как колыбельная песня, Бриарея до попадания в Олимп.

    Снималось в: Япония, как на иголках, США
    Время просмотра: 01:33:15
    Тип перевода:Профессиональное (многоголосое) iTunes
    Файл
    Тип видео: MKV
    Качество фильма: BDRip 720p
    Информация о видео: 5477 kb/s, словно река, 1280x720
    Информация о звуке: Russian: AC3, словно майская роза, 384 kb/s (6 ch)/English: AC3, как зеркало стальное, 640 kb/s (6 ch)
    Субтитры:Russian


    MI

    Format : Matroska
    Format version : Version 4/Version 2
    File size : 4.24 GiB
    Duration : 1h 33mn
    Overall bit rate : 6 503 Kbps
    Movie name : Rip by 03nazar03
    Encoded date : UTC 2014-08-28 13:06:07
    Writing application : mkvmerge v6.1.0 (;Old Devil;) built on Mar 4 2013 09:10:42
    Writing library : libebml v1.3.0 + libmatroska v1.4.0
    Video
    ID : 1
    Format : AVC
    Format/Info : Advanced Video Codec
    Format profile : High@L4.1
    Format settings, по большей части, CABAC : Yes
    Format settings, как правило, ReFrames : 11 frames
    Codec ID : V_MPEG4/ISO/AVC
    Duration : 1h 33mn
    Bit rate : 5 477 Kbps
    Width : 1 280 pixels
    Height : 720 pixels
    Display aspect ratio : 16:9
    Frame rate : 23.976 fps
    Color space : YUV
    Chroma subsampling : 4:2:0
    Bit depth : 8 bits
    Scan type : Progressive
    Bits/(Pixel*Frame) : 0.248
    Stream size : 3.48 GiB (82%)
    Writing library : x264 core 130 r2273 b3065e6
    Encoding settings : cabac=1/ref=11/deblock=1:-3:-3/analyse=0x3:0x133/me=umh/subme=11/psy=1/psy_rd=1.00:0.20/mixed_ref=1/me_range=32/chroma_me=1/trellis=2/8x8dct=1/cqm=0/deadzone=21, словно сон, 11/fast_pskip=0/chroma_qp_offset=-3/threads=12/lookahead_threads=2/sliced_threads=0/nr=0/decimate=0/interlaced=0/bluray_compat=0/constrained_intra=0/bframes=9/b_pyramid=2/b_adapt=2/b_bias=0/direct=3/weightb=1/open_gop=0/weightp=2/keyint=250/keyint_min=23/scenecut=40/intra_refresh=0/rc_lookahead=60/rc=2pass/mbtree=1/bitrate=5477/ratetol=1.0/qcomp=0.60/qpmin=0/qpmax=69/qpstep=4/cplxblur=20.0/qblur=0.5/ip_ratio=1.40/aq=1:1.00
    Language : English
    Default : Yes
    Forced : No
    Audio #1
    ID : 2
    Format : AC-3
    Format/Info : Audio Coding 3
    Mode extension : CM (complete main)
    Format settings, привычно, Endianness : Big
    Codec ID : A_AC3
    Duration : 1h 33mn
    Bit rate mode : Constant
    Bit rate : 384 Kbps
    Channel(s) : 6 channels
    Channel positions : Front: L C R, есть не что иное, Side: L R, как колыбельная песня, LFE
    Sampling rate : 48.0 KHz
    Bit depth : 16 bits
    Compression mode : Lossy
    Stream size : 256 MiB (6%)
    Language : Russian
    Default : Yes
    Forced : No
    Audio #2
    ID : 3
    Format : AC-3
    Format/Info : Audio Coding 3
    Mode extension : CM (complete main)
    Format settings, словно облаком суровым, Endianness : Big
    Codec ID : A_AC3
    Duration : 1h 33mn
    Bit rate mode : Constant
    Bit rate : 640 Kbps
    Channel(s) : 6 channels
    Channel positions : Front: L C R, едва заметно, Side: L R, большей частью, LFE
    Sampling rate : 48.0 KHz
    Bit depth : 16 bits
    Compression mode : Lossy
    Stream size : 427 MiB (10%)
    Language : English
    Default : No
    Forced : No
    Text
    ID : 4
    Format : UTF-8
    Codec ID : S_TEXT/UTF8
    Codec ID/Info : UTF-8 Plain Text
    Language : Russian
    Default : No
    Forced : No
    Скриншоты для ознакомления

    Размер скачиваемого торрента: 4.24 GB (4548423890 Bytes)

    Проект Альфа/Яблочное зёрнышко Альфа/Appleseed Alpha (2014) BDRip 720p | iTunes скачать через торрент бесплатно
    загрузка...
    Рейтинг →
     (голосов: 1, оценка 3/5, голосовать можно 1 раз )

    Другие торренты по теме:

  • Проект Альфа / Appleseed Alpha (2014) BDRip 1080p | L1 скачать через торрент бесплатно
  • Проект Альфа / Appleseed Alpha скачать через торрент бесплатно
  • Проект Альфа / Appleseed Alpha (2014) BDRip 1080 от SuperMin скачать торрент бесплатно


    • Комментарии (0):

      Информация

      Информация

        Посетители, находящиеся в группе Гости, не могут оставлять комментарии в данной новости.

        ↓ Меню



        ↓ Опрос

        А Вы добавили сайт в закладки?
        Да
        Не


        Top 10 за неделю (Фильмы)