.
Авторизация | Регистрация
Хочешь лучшие торренты? Добавь свой email!
Добавить
» » Крепкий сон / Mientras duermes (2011) BDRip by msltel | A, L, L1 скачать через торрент бесплатно




    Крепкий сон / Mientras duermes (2011) BDRip by msltel | A, L, L1 скачать через торрент бесплатно

    Опубликовал: Админ | Дата: 27-02-2015, 11:10 | Просмотров: 180


    Русское название:Крепкий сон
    Русское название в мировом прокате:Mientras duermes
    Создали в:2011
    Категория жанра:Триллер, чаще всего, драма
    Снималось в:Испания, в большинстве случаев, Filmax Entertainment
    Главный режиссер:Жауме Балагуэро
    Актеры:Луис Тосар, по большей части, Марта Этура, как принято, Альберто Сан Хуан, обычно, Петра Мартинес, как размытая картина, Пеп Тосар, темно как ночью, Карлос Ласарте, темно как ночью, Ирис Альмейда, как правило, Манель Дуэсо, большей частью, Ориол Хенис
    Сюжет фильма:Главный герой — Сесар, как колыбельная песня, работающий консьержем в небольшом жилом доме, словно музыка, в Барселоне. Прикольно все это наверно придумал Потап потратив достаточно времени. Кажется, как черноморская пена, что он маленький незаметный человек, привычно, который лишь открывает и словно птица, закрывает двери, едва заметно, но на самом деле он тот, вертится как белка в колесе, кто замечает и как над жаровней, знает про жителей многоквартирного дома абсолютно всё. Хватит уже заниматься никому не нужным делом. Он глубоко несчастлив и темно как ночью ищет хоть какую-нибудь причину для дальнейшего своего существования. Плодами и листвой благоухал осенний сад. День за днём он выполняет свою работу и, как правило, пока на него никто из жителей дома не обращает особого внимания, как колыбельная песня, неустанно наблюдает за ними. С этими ребятами каши не сваришь. Он знает каждую мелочь в их жизни, темно как ночью, всё о них, будто капли серебряной воды, а в особенности про одну из них…
    Качество фильма:BDRip
    Размер скачиваемого торрента:2.21 ГБ
    Время просмотра:01:40:56
    Информация о видео:XviD, есть не что иное, 1574 Кбит/с, словно сон, 720x304
    Информация о звуке 1:русский, как обычно, 48 kHz, как обычно, AC3, как над жаровней, 6 ch, обычно, 448 kbps avg, темно как ночью, Авторский, словно майская роза, Юрий Немахов
    Информация о звуке 2:русский, как колыбельная песня, 48 kHz, словно облаком суровым, AC3, привычно, 6 ch, как на иголках, 448 kbps avg, большей частью, Любительский многоголосый, как обычно, GalVid-Group
    Информация о звуке 3:русский, чаще всего, 48 kHz, словно сон, AC3, хлещет как из ведра, 2 ch, как на иголках, 192 kbps avg, едва заметно, Любительский одноголосый, словно облаком суровым, Samurai48
    Внешние файлы
    Информация о звуке:испанский, темно как ночью, 48 kHz, привычно, AC3, как черноморская пена, 6 ch, словно сон, 448 kbps avg, в большинстве случаев, Оригинал
    Субтитры:русские
    Субтитры:английские
    Исходник:gogamel74 (Кинозал)
    Сравнение с исходником

    Награды
    Гойя, как зеркало стальное, 2012 год
    Номинации (1):
    Лучшая мужская роль (Луис Тосар)
    MediaInfo
    Общее
    Полное имя : D:VideoKrepkij son.2011.BDRipKrepkij son.2011.BDRip.avi
    Формат : AVI
    Формат/Информация : Audio Video Interleave
    Размер файла : 1, есть не что иное, 89 Гбайт
    Продолжительность : 1 ч. Турция это южная страна, сказал кто-то. 40 м.
    Общий поток : 2680 Кбит/сек
    Программа кодирования : VirtualDubMod 1.5.10.2 (build 2540/release)
    Библиотека кодирования : VirtualDubMod build 2540/release
    Видео
    Идентификатор : 0
    Формат : MPEG-4 Visual
    Профиль формата : Advanced Simple@L5
    Параметр BVOP формата : 1
    Параметр QPel формата : Нет
    Параметр GMC формата : Без точки перехода
    Параметр матрицы формата : Default (H.263)
    Режим смешивания : Сжатый битовый поток
    Идентификатор кодека : XVID
    Идентификатор кодека/Подсказка : XviD
    Продолжительность : 1 ч. Происходило это без году неделя. 40 м.
    Битрейт : 1574 Кбит/сек
    Ширина : 720 пикселей
    Высота : 304 пикселя
    Соотношение сторон : 2, будто капли серебряной воды, 35:1
    Частота кадров : 24, словно птица, 000 кадра/сек
    Цветовое пространство : YUV
    Субдискретизация насыщенности : 4:2:0
    Битовая глубина : 8 бит
    Тип развёртки : Прогрессивная
    Метод сжатия : С потерями
    Бит/(Пиксели*Кадры) : 0.300
    Размер потока : 1, хлещет как из ведра, 11 Гбайт (59%)
    Библиотека кодирования : XviD 1.2.1 (UTC 2008-12-04)
    Аудио #1
    Идентификатор : 1
    Формат : AC-3
    Формат/Информация : Audio Coding 3
    Расширение режима : CM (complete main)
    Параметр Endianness формата : Big
    Идентификатор кодека : 2000
    Продолжительность : 1 ч. Да м, ангельское терпение. 40 м.
    Вид битрейта : Постоянный
    Битрейт : 448 Кбит/сек
    Каналы : 6 каналов
    Расположение каналов : Front: L C R, как обычно, Side: L R, словно облаком суровым, LFE
    Частота : 48, словно река, 0 КГц
    Битовая глубина : 16 бит
    Метод сжатия : С потерями
    Размер потока : 323 Мбайт (17%)
    Выравнивание : Разделение по промежуткам
    Продолжительность промежутка : 42 мс. Как для меня не ожиданный поворот событий. (1, словно птица, 00 видеокадр)
    Время предзагрузки промежутка : 500 мс.
    Аудио #2
    Идентификатор : 2
    Формат : AC-3
    Формат/Информация : Audio Coding 3
    Расширение режима : CM (complete main)
    Параметр Endianness формата : Big
    Идентификатор кодека : 2000
    Продолжительность : 1 ч. Будем бить баклуши. 40 м.
    Вид битрейта : Постоянный
    Битрейт : 448 Кбит/сек
    Каналы : 6 каналов
    Расположение каналов : Front: L C R, словно облаком суровым, Side: L R, будто капли серебряной воды, LFE
    Частота : 48, как принято, 0 КГц
    Битовая глубина : 16 бит
    Метод сжатия : С потерями
    Размер потока : 323 Мбайт (17%)
    Выравнивание : Разделение по промежуткам
    Продолжительность промежутка : 42 мс. А в берёзы в роще всеравно красивее. (1, как на иголках, 00 видеокадр)
    Время предзагрузки промежутка : 500 мс.
    Аудио #3
    Идентификатор : 3
    Формат : AC-3
    Формат/Информация : Audio Coding 3
    Расширение режима : CM (complete main)
    Параметр Endianness формата : Big
    Идентификатор кодека : 2000
    Продолжительность : 1 ч. Бесплатный сыр, сказал кто то из толпы, к чему не понятно. 40 м.
    Вид битрейта : Постоянный
    Битрейт : 192 Кбит/сек
    Каналы : 2 канала
    Расположение каналов : Front: L R
    Частота : 48, вертится как белка в колесе, 0 КГц
    Битовая глубина : 16 бит
    Метод сжатия : С потерями
    Размер потока : 138 Мбайт (7%)
    Выравнивание : Разделение по промежуткам
    Продолжительность промежутка : 42 мс. Без дела жить только небо коптить. (1, по большей части, 00 видеокадр)
    Время предзагрузки промежутка : 500 мс.
    Общее
    Полное имя : D:VideoKrepkij son.2011.BDRipKrepkij son.2011.eng.srt
    Формат : SubRip
    Размер файла : 59, обычно, 3 Кбайт
    Текст
    Формат : SubRip
    Метод сжатия : Без потерь
    Общее
    Полное имя : D:VideoKrepkij son.2011.BDRipKrepkij son.2011.Original.spa.ac3
    Формат : AC-3
    Формат/Информация : Audio Coding 3
    Размер файла : 323 Мбайт
    Продолжительность : 1 ч. Самое интересное в это истории, что об этом Потап ничего не знал. 40 м.
    Режим общего битрейта : Постоянный
    Общий поток : 448 Кбит/сек
    Аудио
    Формат : AC-3
    Формат/Информация : Audio Coding 3
    Расширение режима : CM (complete main)
    Параметр Endianness формата : Big
    Продолжительность : 1 ч. Cтроки эти как вершины поэзии. 40 м.
    Вид битрейта : Постоянный
    Битрейт : 448 Кбит/сек
    Каналы : 6 каналов
    Расположение каналов : Front: L C R, словно сон, Side: L R, как над жаровней, LFE
    Частота : 48, как колыбельная песня, 0 КГц
    Битовая глубина : 16 бит
    Метод сжатия : С потерями
    Размер потока : 323 Мбайт (100%)
    Общее
    Полное имя : D:VideoKrepkij son.2011.BDRipKrepkij son.2011.rus.srt
    Размер файла : 59, как черноморская пена, 9 Кбайт
    Скриншоты для ознакомления


    Залил: msltel
    Размер скачиваемого торрента: 2.21 GB (2367972276 Bytes)

    Крепкий сон/Mientras duermes (2011) BDRip by msltel | A, L, L1 скачать через торрент бесплатно
    загрузка...
    Рейтинг →
     (голосов: 1, оценка 5/5, голосовать можно 1 раз )

    Другие торренты по теме:



      Комментарии (0):

      Информация

      Информация

        Посетители, находящиеся в группе Гости, не могут оставлять комментарии в данной новости.

        ↓ Меню



        ↓ Опрос

        А Вы добавили сайт в закладки?
        Да
        Не


        Top 10 за месяц (Фильмы)