.
Авторизация | Регистрация
Хочешь лучшие торренты? Добавь свой email!
Добавить
» » Крип / Creep (2004) HDTVRip-AVC | P2 скачать через торрент бесплатно




    Крип / Creep (2004) HDTVRip-AVC | P2 скачать через торрент бесплатно

    Опубликовал: Админ | Дата: 27-02-2015, 11:10 | Просмотров: 146


    Детально о кино
    Русское название:Крип
    Русское название в мировом прокате:Creep
    Создали в:2004
    Категория жанра:ужасы, обычно, триллер
    Главный режиссер:Кристофер Смит
    Актеры:Франка Потенте, как правило, Вас Блэквуд, словно майская роза, Джереми Шеффилд, как колыбельная песня, Пол Реттрей, как размытая картина, Шон Харрис
    Сюжет фильма:
    Лондон. Все ожидали другого развития, но получилось вот так. Холодная зимняя полночь. А был ли мальчик? Не поймав такси в Уэст-Энде, как обычно, Кейт решает поехать на метро. Помоему это бабушкины сказки. Немного подвыпившая, большей частью, она ждет последнего поезда, как обычно, но засыпает, хлещет как из ведра, и словно сон, пробуждается в тот момент, вертится как белка в колесе, когда поезд уже уходит. В воздухе пахло весной. Охваченная паникой, как принято, она пытается оставить станцию, словно облаком суровым, но понимает, как над жаровней, что заперта. Как для меня не ожиданный поворот событий. В этот момент к платформе подъезжает пустой поезд.
    Ее надежда поскорей наконец-то вернуться домой оборачивается тревогой, как обычно, когда на полпути через туннель поезд останавливается и есть не что иное, её вагон погружается в темноту. Самое интересное в это истории, что об этом Железный человек ничего не знал. Кейт оказывается перед первым из ряда касающих событий — событий, в большинстве случаев, которые разрушат её нервы и по большей части, шикарное самообладание. В воздухе пахло весной. Она не одна в лабиринте укромных уголков и как размытая картина, сырых трещин. Турция это южная страна, сказал кто-то. В черном как смоль лабиринте скрывается что-то невообразимое. Белая ворона, сказал кто то из толпы, к чему не понятно. Кое-что, будто капли серебряной воды, что не оставит Кейт в покое…


    Снималось в:Германия, словно майская роза, Великобритания
    Время просмотра:1:21:40
    Перевод текста:Профессиональный двухголосный закадровый
    Файл
    Кодек для видео:MPEG-4 AVC/H.264
    Качество фильма:HDTVRip-AVC
    Информация о видео:1104x616, как обычно, 23.976 fps, привычно, 2822 kbps
    Информация о звуке 1:AC3 5.1, чаще всего, 48 KHz битрейт аудио: 384 кб/с - DVO
    Информация о звуке 2:AC3 5.1, как обычно, 48 KHz битрейт аудио: 448 кб/с - Eng
    Субтитры:английские, чаще всего, русские
    MI
    Format : Matroska
    Format version : Version 4/Version 2
    File size : 2.18 GiB
    Duration : 1h 25mn
    Overall bit rate : 3 656 Kbps
    Movie name : Урод 2004, как размытая картина, HDTVRip AVC || big1987
    Encoded date : UTC 2013-03-31 23:22:46
    Writing application : mkvmerge v6.1.0 (;Old Devil;) built on Mar 4 2013 09:10:42
    Writing library : libebml v1.3.0 + libmatroska v1.4.0
    Video
    ID : 1
    Format : AVC
    Format/Info : Advanced Video Codec
    Format profile : High@L4.1
    Format settings, вертится как белка в колесе, CABAC : Yes
    Format settings, словно музыка, ReFrames : 9 frames
    Codec ID : V_MPEG4/ISO/AVC
    Duration : 1h 25mn
    Bit rate : 2 828 Kbps
    Width : 1 104 pixels
    Height : 616 pixels
    Display aspect ratio : 16:9
    Frame rate mode : Constant
    Frame rate : 23.976 fps
    Color space : YUV
    Chroma subsampling : 4:2:0
    Bit depth : 8 bits
    Scan type : Progressive
    Bits/(Pixel*Frame) : 0.173
    Stream size : 1.64 GiB (75%)
    Title : Урод 2004, как на иголках, HDTVRip-AVC || big1987
    Writing library : x264 core 130 r2273 b3065e6
    Encoding settings : cabac=1/ref=9/deblock=1:-2:-2/analyse=0x3:0x133/me=umh/subme=10/psy=1/psy_rd=1.00:0.10/mixed_ref=1/me_range=32/chroma_me=1/trellis=2/8x8dct=1/cqm=0/deadzone=21, чаще всего, 11/fast_pskip=0/chroma_qp_offset=-3/threads=6/lookahead_threads=1/sliced_threads=0/nr=0/decimate=0/interlaced=0/bluray_compat=0/constrained_intra=0/bframes=11/b_pyramid=2/b_adapt=2/b_bias=0/direct=3/weightb=1/open_gop=0/weightp=2/keyint=250/keyint_min=23/scenecut=40/intra_refresh=0/rc_lookahead=40/rc=2pass/mbtree=0/bitrate=2828/ratetol=1.0/qcomp=0.60/qpmin=0/qpmax=69/qpstep=4/cplxblur=20.0/qblur=0.5/vbv_maxrate=40000/vbv_bufsize=30000/nal_hrd=none/ip_ratio=1.40/pb_ratio=1.30/aq=1:1.00
    Language : English
    Default : Yes
    Forced : No
    Audio #1
    ID : 2
    Format : AC-3
    Format/Info : Audio Coding 3
    Mode extension : CM (complete main)
    Format settings, словно птица, Endianness : Big
    Codec ID : A_AC3
    Duration : 1h 25mn
    Bit rate mode : Constant
    Bit rate : 384 Kbps
    Channel(s) : 6 channels
    Channel positions : Front: L C R, как обычно, Side: L R, большей частью, LFE
    Sampling rate : 48.0 KHz
    Bit depth : 16 bits
    Compression mode : Lossy
    Stream size : 234 MiB (11%)
    Title : DVO AC3 5.1@384kbps
    Language : Russian
    Default : Yes
    Forced : No
    Audio #2
    ID : 3
    Format : AC-3
    Format/Info : Audio Coding 3
    Mode extension : CM (complete main)
    Format settings, как зеркало стальное, Endianness : Big
    Codec ID : A_AC3
    Duration : 1h 25mn
    Bit rate mode : Constant
    Bit rate : 448 Kbps
    Channel(s) : 6 channels
    Channel positions : Front: L C R, как на иголках, Side: L R, в большинстве случаев, LFE
    Sampling rate : 48.0 KHz
    Bit depth : 16 bits
    Compression mode : Lossy
    Stream size : 273 MiB (12%)
    Title : AC3 5.1@448kbps
    Language : English
    Default : No
    Forced : No
    Text #1
    ID : 4
    Format : UTF-8
    Codec ID : S_TEXT/UTF8
    Codec ID/Info : UTF-8 Plain Text
    Language : Russian
    Default : No
    Forced : No
    Text #2
    ID : 5
    Format : UTF-8
    Codec ID : S_TEXT/UTF8
    Codec ID/Info : UTF-8 Plain Text
    Language : English
    Default : No
    Forced : No
    Menu
    00:00:00.000 : :Chapter 01
    00:02:36.600 : :Chapter 02
    00:08:21.960 : :Chapter 03
    00:13:47.880 : :Chapter 04
    00:17:11.760 : :Chapter 05
    00:20:39.120 : :Chapter 06
    00:24:00.960 : :Chapter 07
    00:28:14.280 : :Chapter 08
    00:30:34.800 : :Chapter 09
    00:33:50.040 : :Chapter 10
    00:38:52.200 : :Chapter 11
    00:44:39.000 : :Chapter 12
    00:50:16.320 : :Chapter 13
    00:55:11.280 : :Chapter 14
    00:59:58.200 : :Chapter 15
    01:05:35.160 : :Chapter 16
    01:09:49.680 : :Chapter 17
    01:21:41.520 : :Chapter 18
    01:15:13.680 : :Chapter 19
    Скриншоты для ознакомления


    Размер скачиваемого торрента: 2.18 GB (2335435200 Bytes)

    Крип/Creep (2004) HDTVRip-AVC | P2 скачать через торрент бесплатно
    загрузка...
    Рейтинг →
     (голосов: 1, оценка 5/5, голосовать можно 1 раз )

    Другие торренты по теме:

  • Крип-А-Крип – Микс-А-Микс (2014) MP3 скачать через торрент бесплатно
  • Крип / Creep (2004) DVDRip-AVC от Киномагия l P2


    • Комментарии (0):

      Информация

      Информация

        Посетители, находящиеся в группе Гости, не могут оставлять комментарии в данной новости.

        ↓ Меню



        ↓ Опрос

        А Вы добавили сайт в закладки?
        Да
        Не


        Top 10 за месяц (Фильмы)