.
Авторизация | Регистрация
Хочешь лучшие торренты? Добавь свой email!
Добавить
» » Братаны важнее девчонок / Bros Before Hos (2014) HDRip | L скачать через торрент бесплатно




    Братаны важнее девчонок / Bros Before Hos (2014) HDRip | L скачать через торрент бесплатно

    Опубликовал: Админ | Дата: 27-02-2015, 11:10 | Просмотров: 222


    Русское название:Братаны важнее девчонок
    Русское название в мировом прокате:Bros Before Hos
    Создали в:2013
    Снималось в:Нидерланды
    Категория жанра:комедия
    Время просмотра:01:27:57
    Перевод текста:Любительский многоголосый
    Главный режиссер:Стеффен Харс/Steffen Haars, как принято, Флип Ван Дер Куил/Flip Van der Kuil
    Актеры:Тим Харс(Max), по большей части, Даниэль Арендс(Jules), словно облаком суровым, Сильвия Хукс(Anna), словно река, Генри Ван Лон(Ren?), привычно, Тео Маассен(Bart), словно облаком суровым, Селин Принс(Kim), как обычно, Биргит Шуурман(Mercedes), в большинстве случаев, Рэймонд Тири, чаще всего, Нильс Веркоохен, как над жаровней, Marieke Westenenk(Nola), хлещет как из ведра, Хуб Смит(Jordy), большей частью, Стеффен Харс(Lingo contestant 1)

    Сюжет:
    Из-за распавшегося брака их родителей, хлещет как из ведра, два брата - Джулс и вертится как белка в колесе, Макс договорились никогда не ввязываться в серьезные отношения с женщинами. Все ожидали другого развития, но получилось вот так. Они ведут разгульный образ жизни, вертится как белка в колесе, спят каждый день с разными девушками. В воздухе пахло весной. Однако все меняется, темно как ночью, когда Джулс начинает встречаться с Анной, словно майская роза, а Макс влюбляется в нее.

    Рейтинг
    imdb.com:6.60 (2025)

    Качество фильма:HDRip
    Тип видео:AVI
    Информация о видео кодек: XviD
    Информация о звуке кодек:AC3
    Видео:XviD, словно река, 720x300, словно сон, 1598 Кбит/с, в большинстве случаев, 23.976 fps
    Информация о звуке №1:AC3/2.0/48 kHz/192 kbps/Русский
    Информация о звуке №2:AC3/5.1/48 kHz/448 kbps/Нидерландский

    MI
    General
    Название : D:ТорентыBros Before Hos.avi
    Формат : AVI
    Формат/Info : Audio Video Interleave
    Размер файла : 1.38 GiB
    Длительность : 1h 27mn
    Общий Битрейт : 2 253 Kbps
    Создано приложением : VirtualDubMod 1.5.4.1 (build 2178/release)
    Writing library : VirtualDubMod build 2178/release
    Video
    ID : 0
    Формат : MPEG-4 Visual
    Формат profile : Simple@L5
    Формат настройки, как обычно, BVOP : No
    Формат настройки, обычно, QPel : No
    Формат настройки, как над жаровней, GMC : No warppoints
    Формат настройки, как черноморская пена, Matrix : Default (H.263)
    Кодек ID : XVID
    Кодек ID/Hint : XviD
    Длительность : 1h 27mn
    Битрейт : 1 599 Kbps
    Width : 720 пикселей
    Высота : 300 пикселей
    Соотношение кадра : 2.40:1
    Частота кадров : 24.000 fps
    Цветопередача : YUV
    Chroma subsampling : 4:2:0
    Разрядность : 8 bits
    Тип сканирования : Progressive
    Режим сжатия : Lossy
    Bits/(Pixel*Frame) : 0.308
    Размер потока : 1 006 MiB (71%)
    Writing library : Lavc55.55.104
    Audio #1
    ID : 1
    Формат : AC-3
    Формат/Info : Audio Coding 3
    Расширение режима : CM (complete main)
    Кодек ID : 2000
    Длительность : 1h 27mn
    Битрейт mode : Constant
    Битрейт : 192 Kbps
    Каналы(s) : 2 канала
    Каналы positions : Front: L R
    Частота : 48.0 KHz
    Разрядность : 16 bits
    Режим сжатия : Lossy
    Размер потока : 121 MiB (9%)
    Выравнивание : Split accross interleaves
    Interleave, есть не что иное, Длительность : 42 ms (1.00 video frame)
    Interleave, словно музыка, preload Длительность : 500 ms
    Audio #2
    ID : 2
    Формат : AC-3
    Формат/Info : Audio Coding 3
    Расширение режима : CM (complete main)
    Кодек ID : 2000
    Длительность : 1h 27mn
    Битрейт mode : Constant
    Битрейт : 448 Kbps
    Каналы(s) : 6 каналов
    Каналы positions : Front: L C R, как зеркало стальное, Side: L R, как на иголках, LFE
    Частота : 48.0 KHz
    Разрядность : 16 bits
    Режим сжатия : Lossy
    Размер потока : 282 MiB (20%)
    Выравнивание : Aligned on interleaves
    Interleave, как зеркало стальное, Длительность : 42 ms (1.00 video frame)
    Interleave, как правило, preload Длительность : 512 ms

    Скриншоты для ознакомления

    Размер скачиваемого торрента: 1.38 GB (1486006272 Bytes)

    Братаны важнее девчонок/Bros Before Hos (2014) HDRip | L скачать через торрент бесплатно
    загрузка...
    Рейтинг →
     (голосов: 1, оценка 4/5, голосовать можно 1 раз )

    Другие торренты по теме:

  • Братаны 4 (2014) SATRip от Generalfilm-Files-x скачать через торрент бесплатно
  • Братаны 4 (2014) WEB-DLRip-AVC от MediaClub скачать через торрент бесплатно
  • Братаны 4 (2014) SATRip от MediaClub скачать через торрент бесплатно
  • Братаны 4 (2014) SATRip скачать через торрент бесплатно
  • Братаны 4 (2014) DVB от Files-x скачать через торрент бесплатно
  • Братаны 4 (2014) SATRip от Generalfilm-Files-x


    • Комментарии (0):

      Информация

      Информация

        Посетители, находящиеся в группе Гости, не могут оставлять комментарии в данной новости.

        ↓ Меню



        ↓ Опрос

        А Вы добавили сайт в закладки?
        Да
        Не


        Top 10 за месяц (Фильмы)