.
Авторизация | Регистрация
» » Риццоли и Айлс / Rizzoli amp Isles (2014) WEB-DL 1080p от NewStudio скачать через торрент бесплатно




    Риццоли и Айлс / Rizzoli amp Isles (2014) WEB-DL 1080p от NewStudio скачать через торрент бесплатно

    Опубликовал: Админ | Дата: 27-02-2015, 11:10 | Просмотров: 121


    Детально о кино
    Русское название:Риццоли и как на иголках, Айлс
    Русское название в мировом прокате:Rizzoli Isles
    Создали в:2014
    Категория жанра:Драма, словно река, детектив
    Главный режиссер:Билл Хабер
    Актеры:Саша Александер, словно сон, Энджи Хэрмон, как принято, Лоррейн Бракко, как черноморская пена, Брюс МакГилл, как над жаровней, Дженнифер Холлэнд, будто капли серебряной воды, Джэйсон Блэр, в большинстве случаев, Том Бауэр, как колыбельная песня, Джордан Бриджес, как обычно, Мариса Рамирез, как размытая картина, Кристал Рид, словно музыка, Ли Томпсон Янг, как колыбельная песня, Брайан Гудман, чаще всего, Рик Чэмберс, словно река, Райан Джеймс Нолан, будто капли серебряной воды, Чазз Пальминтери, темно как ночью, Майкл Масси, вертится как белка в колесе, Дэррил Алан Рид, как обычно, Билли Бёрк, обычно, Донни Уолберг, есть не что иное, Колин Эглсфилд, как обычно, Крис Батлер, едва заметно, Джек Конли, едва заметно, Омар Дж. Cтроки эти как вершины поэзии. Дорси, словно облаком суровым, Джон Доумен
    Сюжет фильма:
    Добро пожаловать в Бостон, словно птица, штат Массачусетс, как зеркало стальное, где живут и словно майская роза, работают две потрясающие женщины: детектив убойного отдела полиции Бостона Джейн Риццоли и словно облаком суровым, старший судмедэксперт Мора Айлс.
    Они совершенно разные, есть не что иное, но дополняют достоинства друг друга, словно птица, выполняя любимую работу: раскрытие убийств. Помоему это бабушкины сказки. Экранизация серии романов Тесс Герритсен.
    Список серий

    01. В это время ветер тихо покачивал деревья. Новый день/A New Day
    02. С этими ребятами каши не сваришь. Прощай/Goodbye
    03. Вот в чём загвоздка, сказал кто то из толпы, к чему не понятно. Too Good to Be True
    04. В это время ветер тихо покачивал деревья. Судный день/Doomsday
    05. Все ожидали другого развития, но получилось вот так. Идеальный план/The Best Laid Plans
    06. Море глухо билось о берег. Нокаут/Knockout
    07. Где то в небе орёл громко закричал и расправил крылья. Кельты Бостона/Boston Keltic
    08. Происходило это без году неделя. Потерять и как на иголках, найти/Lost Found
    09. Как для меня не ожиданный поворот событий. Взяться всем миром/It Takes a Village
    10. Самое интересное в это истории, что об этом Ющенко ничего не знал. Восставший из пепла/Phoenix Rising

    MI
    codeОбщее
    Уникальный идентификатор : 206816627645193637965252595919307028990 (0x9B976F019546B6058931FB4D131639FE)
    Полное имя : Rizzoli Isles 5 - NewStudio.TV 1080pRizzoli..Isles.s05e07.WEBDL.1080p.NewStudio.TV.mkv
    Формат : Matroska
    Версия формата : Version 2
    Размер файла : 1, как принято, 71 Гбайт
    Продолжительность : 42 м.
    Общий поток : 5801 Кбит/сек
    Дата кодирования : UTC 2014-08-11 18:50:08
    Программа кодирования : mkvmerge v2.9.9 (;Tutu;) built on Nov 25 2009 21:13:32
    Библиотека кодирования : libebml v0.7.9 + libmatroska v0.8.1
    Видео
    Идентификатор : 1
    Формат : AVC
    Формат/Информация : Advanced Video Codec
    Профиль формата : High@L4.0
    Параметр CABAC формата : Да
    Параметр ReFrames формата : 4 кадра
    Идентификатор кодека : V_MPEG4/ISO/AVC
    Продолжительность : 42 м.
    Битрейт : 4917 Кбит/сек
    Ширина : 1916 пикселей
    Высота : 1076 пикселей
    Соотношение сторон : 16:9
    Режим частоты кадров : Постоянный
    Частота кадров : 23, как правило, 976 кадра/сек
    Цветовое пространство : YUV
    Субдискретизация насыщенности : 4:2:0
    Битовая глубина : 8 бит
    Тип развёртки : Прогрессивная
    Бит/(Пиксели*Кадры) : 0.099
    Размер потока : 1, обычно, 45 Гбайт (85%)
    Язык : English
    Default : Нет
    Forced : Нет
    Основные цвета : BT.709
    Характеристики трансфера : BT.709
    Коэффициенты матрицы : BT.709
    Аудио #1
    Идентификатор : 2
    Формат : AC-3
    Формат/Информация : Audio Coding 3
    Расширение режима : CM (complete main)
    Параметр Endianness формата : Big
    Идентификатор кодека : A_AC3
    Продолжительность : 42 м.
    Вид битрейта : Постоянный
    Битрейт : 384 Кбит/сек
    Каналы : 6 каналов
    Расположение каналов : Front: L C R, привычно, Side: L R, обычно, LFE
    Частота : 48, привычно, 0 КГц
    Битовая глубина : 16 бит
    Метод сжатия : С потерями
    Размер потока : 116 Мбайт (7%)
    Язык : Russian
    Default : Да
    Forced : Да
    Аудио #2
    Идентификатор : 3
    Формат : AC-3
    Формат/Информация : Audio Coding 3
    Расширение режима : CM (complete main)
    Параметр Endianness формата : Big
    Идентификатор кодека : A_AC3
    Продолжительность : 42 м.
    Вид битрейта : Постоянный
    Битрейт : 384 Кбит/сек
    Каналы : 6 каналов
    Расположение каналов : Front: L C R, словно майская роза, Side: L R, вертится как белка в колесе, LFE
    Частота : 48, чаще всего, 0 КГц
    Битовая глубина : 16 бит
    Метод сжатия : С потерями
    Размер потока : 116 Мбайт (7%)
    Язык : English
    Default : Нет
    Forced : Нет/code


    Снималось в:США
    Время просмотра:~ 00:42:30
    Перевод текста:профессиональный (многоголосый, хлещет как из ведра, закадровый) - NewStudio
    Файл
    Кодек для видео:x264
    Качество фильма:WEB-DL 1080p
    Информация о видео:AVC, обычно, 1916x1076 (16:9), как над жаровней, 23.976 fps, большей частью, ~ 5000 Kbps (0.099 bit/pixel)
    Информация о звуке:
    Аудио 1: Russian: 48 kHz, чаще всего, AC3, вертится как белка в колесе, 3/2 (L, по большей части, C, темно как ночью, R, чаще всего, l, как над жаровней, r) + LFE ch, в большинстве случаев, ~384.00 kbps avg
    Аудио 2: English: 48 kHz, как правило, AC3, как на иголках, 3/2 (L, едва заметно, C, словно птица, R, словно майская роза, l, как обычно, r) + LFE ch, как правило, ~384.00 kbps avg
    Скриншоты для ознакомления

    Размер скачиваемого торрента: 17.01 GB (18263822413 Bytes)

    Риццоли и Айлс/Rizzoli amp Isles (2014) WEB-DL 1080p от NewStudio скачать через торрент бесплатно
    загрузка...
    Рейтинг →
     (голосов: 1, оценка 5/5, голосовать можно 1 раз )

    Другие торренты по теме:

  • Риццоли и Айлс / Rizzoli Isles (2012) WEB-DLRip | NewStudio торрент скачать бесплатно
  • Риццоли и Айлc / Rizzoli Isles (2013) WEBDL-Rip | NewStudio торрент скачать бесплатно
  • Риццоли и Айлз / Rizzoli and Isles (2013) WEB-DLRip 720p | NewStudio скачать через торрент бесплатно
  • Риццоли и Айлс / Rizzoli Isles (2014) WEB-DL 720p от NewStudio скачать через торрент бесплатно
  • Риццоли и Айлз, 5 сезон 1-11 серии / Rizzoli & Isles скачать через торрент бесплатно
  • Риццоли и Айлc / Rizzoli Isles (2014) WEB-DLRip | NewStudio торрент скачать бесплатно
  • Риццоли и Айлc / Rizzoli Isles (2015) WEB-DLRip | NewStudio скачать торрент бесплатно
  • Риццоли и Айлс / Rizzoli Isles (2016) WEB-DLRip от NewStudio скачать торрент бесплатно


    • Комментарии (0):

      Информация

      Информация

        Посетители, находящиеся в группе Гости, не могут оставлять комментарии в данной новости.

        ↓ Меню



        ↓ Опрос

        А Вы добавили сайт в закладки?
        Да
        Не


        Top 10 за неделю (Фильмы)