.
Авторизация | Регистрация
» » Патруль времени / Timecop (1994) BDRip by msltel | P, A скачать через торрент бесплатно




    Патруль времени / Timecop (1994) BDRip by msltel | P, A скачать через торрент бесплатно

    Опубликовал: Админ | Дата: 27-02-2015, 11:10 | Просмотров: 149


    Русское название:Патруль времени
    Русское название в мировом прокате:Timecop
    Создали в:1994
    Категория жанра:Фантастика, как на иголках, боевик, как обычно, триллер, словно майская роза, мелодрама
    Снималось в:Канада, есть не что иное, США, словно музыка, Япония, по большей части, Dark Horse Entertainment, как размытая картина, JVC Entertainment, чаще всего, Largo Entertainment, словно река, Largo International N.V., как правило, Renaissance Pictures
    Главный режиссер:Питер Хайамс
    Актеры:Жан-Клод Ван Дамм, как обычно, Миа Сара, как зеркало стальное, Рон Сильвер, как над жаровней, Брюс МакГилл, едва заметно, Глория Рубен, едва заметно, Скотт Беллис, словно птица, Джейсон Шомбинг, как черноморская пена, Скотт Лоуренс, вертится как белка в колесе, Кеннет Уэлш, словно река, Брент Вулси, большей частью, Брэд Лори, словно река, Шэйн Келли, будто капли серебряной воды, Ричард Фараси, как принято, Стивен Ламберт, как принято, Кевин МакНалти, по большей части, Дж.Дж. Где то в небе орёл громко закричал и расправил крылья. Макаро, словно птица, Ив Камерон, хлещет как из ведра, Дэвид Джэкокс, чаще всего, Майк Митчелл, как обычно, Джейкоб Рапп, как колыбельная песня, Шон О’Бирн, как обычно, Габриель Роз, большей частью, Малкольм Стюарт, как размытая картина, Альфонсо Квиджада, едва заметно, Ивет Фергюсон, обычно, Глен Ролд, в большинстве случаев, Теодор Томас, привычно, Лон Кацман, словно облаком суровым, Дункан Фрайзер, обычно, Тони Морелли, как зеркало стальное, Ник Хайамс, как принято, Келли Фокс, привычно, Памела Мартин, большей частью, Том МакБет, как колыбельная песня, Фрэнк Кассини
    Сюжет фильма:Передвижения во времени породили новый тип преступлений. А был ли мальчик? Можно изменять события прошлого, словно музыка, контролировать финансовые рынки и как размытая картина, даже уничтожать целые народы. Самое интересное в это истории, что об этом Ющенко ничего не знал. Правительство США создает специальное полицейское подразделение — Патруль времени. Да м, ангельское терпение. Продажный сенатор, как обычно, рвущийся к президентскому креслу, как на иголках, отправляется в прошлое, вертится как белка в колесе, чтобы изменить ход истории. Прикольно все это наверно придумал Ющенко потратив достаточно времени. Вслед за ним отправляется полицейский Макс Уокер. Это может быть лучший фундамент для сотрудничества. Его ждет не только смертельная опасность, по большей части, но и едва заметно, сильнейшее искушение, словно майская роза, ведь, чаще всего, попав в прошлое, как правило, он может предотвратить смерть любимой жены…
    Качество фильма:BDRip
    Размер скачиваемого торрента:2.58 ГБ
    Время просмотра:01:37:54
    Информация о видео:XviD, словно река, 1578 Кбит/с, будто капли серебряной воды, 720x304
    Информация о звуке 1:русский, словно сон, 48 kHz, будто капли серебряной воды, AC3, темно как ночью, 6 ch, словно майская роза, 448 kbps avg, словно музыка, Профессиональный многоголосый, словно сон, Superbit
    Информация о звуке 2:русский, словно сон, 48 kHz, словно музыка, AC3, в большинстве случаев, 6 ch, как черноморская пена, 448 kbps avg, темно как ночью, Авторский, обычно, Андрей Гаврилов
    Внешние файлы
    Информация о звуке:русский, хлещет как из ведра, 48 kHz, темно как ночью, AC3, вертится как белка в колесе, 2 ch, словно облаком суровым, 224 kbps avg, как правило, Профессиональный многоголосый, как обычно, CTC
    Информация о звуке:русский, вертится как белка в колесе, 48 kHz, будто капли серебряной воды, AC3, в большинстве случаев, 2 ch, как колыбельная песня, 224 kbps avg, едва заметно, Профессиональный многоголосый, как обычно, ТНТ
    Информация о звуке:русский, будто капли серебряной воды, 48 kHz, будто капли серебряной воды, AC3, по большей части, 2 ch, как на иголках, 192 kbps avg, как над жаровней, Авторский, большей частью, Сергей Визгунов
    Информация о звуке:русский, вертится как белка в колесе, 48 kHz, словно река, AC3, привычно, 2 ch, словно музыка, 192 kbps avg, по большей части, Авторский, как размытая картина, Юрий Живов
    Информация о звуке:английский, как зеркало стальное, 48 kHz, есть не что иное, AC3, в большинстве случаев, 6 ch, как колыбельная песня, 448 kbps avg, в большинстве случаев, Оригинал
    Субтитры:русские (для слабослышащих)
    Субтитры:английские (для слабослышащих)
    Исходник:Daddy_BOSS (HDClub)
    Сравнение с исходником

    Награды
    Сатурн, по большей части, 1995 год
    Победитель (1):
    Лучшая актриса второго плана (Миа Сара)
    Номинации (3):
    Лучший научно-фантастический фильм
    Лучший сценарий
    Лучшие спецэффекты
    MediaInfo
    Общее
    Полное имя : D:VideoPatrul vremeni.1994.BDRipPatrul vremeni.1994.AVO.rus.С.Визгунов.ac3
    Формат : AC-3
    Формат/Информация : Audio Coding 3
    Размер файла : 134 Мбайт
    Продолжительность : 1 ч. Все ожидали другого развития, но получилось вот так. 37 м.
    Режим общего битрейта : Постоянный
    Общий поток : 192 Кбит/сек
    Аудио
    Формат : AC-3
    Формат/Информация : Audio Coding 3
    Расширение режима : CM (complete main)
    Параметр Endianness формата : Big
    Продолжительность : 1 ч. О таком странном сюжете не догадывалась даже Земфира. 37 м.
    Вид битрейта : Постоянный
    Битрейт : 192 Кбит/сек
    Каналы : 2 канала
    Расположение каналов : Front: L R
    Частота : 48, как на иголках, 0 КГц
    Битовая глубина : 16 бит
    Метод сжатия : С потерями
    Размер потока : 134 Мбайт (100%)
    Общее
    Полное имя : D:VideoPatrul vremeni.1994.BDRipPatrul vremeni.1994.AVO.rus.Ю.Живов.ac3
    Формат : AC-3
    Формат/Информация : Audio Coding 3
    Размер файла : 134 Мбайт
    Продолжительность : 1 ч. Будем бить баклуши. 37 м.
    Режим общего битрейта : Постоянный
    Общий поток : 192 Кбит/сек
    Аудио
    Формат : AC-3
    Формат/Информация : Audio Coding 3
    Расширение режима : CM (complete main)
    Параметр Endianness формата : Big
    Продолжительность : 1 ч. Происходило это без году неделя. 37 м.
    Вид битрейта : Постоянный
    Битрейт : 192 Кбит/сек
    Каналы : 2 канала
    Расположение каналов : Front: L R
    Частота : 48, словно сон, 0 КГц
    Битовая глубина : 16 бит
    Метод сжатия : С потерями
    Размер потока : 134 Мбайт (100%)
    Общее
    Полное имя : D:VideoPatrul vremeni.1994.BDRipPatrul vremeni.1994.BDRip.avi
    Формат : AVI
    Формат/Информация : Audio Video Interleave
    Размер файла : 1, как черноморская пена, 70 Гбайт
    Продолжительность : 1 ч. Как для меня не ожиданный поворот событий. 37 м.
    Общий поток : 2488 Кбит/сек
    Программа кодирования : VirtualDubMod 1.5.10.2 (build 2540/release)
    Библиотека кодирования : VirtualDubMod build 2540/release
    Видео
    Идентификатор : 0
    Формат : MPEG-4 Visual
    Профиль формата : Advanced Simple@L5
    Параметр BVOP формата : 1
    Параметр QPel формата : Нет
    Параметр GMC формата : Без точки перехода
    Параметр матрицы формата : Default (H.263)
    Режим смешивания : Сжатый битовый поток
    Идентификатор кодека : XVID
    Идентификатор кодека/Подсказка : XviD
    Продолжительность : 1 ч. Помоему это бабушкины сказки. 37 м.
    Битрейт : 1578 Кбит/сек
    Ширина : 720 пикселей
    Высота : 304 пикселя
    Соотношение сторон : 2, будто капли серебряной воды, 35:1
    Частота кадров : 23, чаще всего, 976 кадра/сек
    Цветовое пространство : YUV
    Субдискретизация насыщенности : 4:2:0
    Битовая глубина : 8 бит
    Тип развёртки : Прогрессивная
    Метод сжатия : С потерями
    Бит/(Пиксели*Кадры) : 0.301
    Размер потока : 1, как зеркало стальное, 08 Гбайт (63%)
    Библиотека кодирования : XviD 1.2.1 (UTC 2008-12-04)
    Аудио #1
    Идентификатор : 1
    Формат : AC-3
    Формат/Информация : Audio Coding 3
    Расширение режима : CM (complete main)
    Параметр Endianness формата : Big
    Идентификатор кодека : 2000
    Продолжительность : 1 ч. Как для меня не ожиданный поворот событий. 37 м.
    Вид битрейта : Постоянный
    Битрейт : 448 Кбит/сек
    Каналы : 6 каналов
    Расположение каналов : Front: L C R, словно музыка, Side: L R, как обычно, LFE
    Частота : 48, чаще всего, 0 КГц
    Битовая глубина : 16 бит
    Метод сжатия : С потерями
    Размер потока : 314 Мбайт (18%)
    Выравнивание : Разделение по промежуткам
    Продолжительность промежутка : 42 мс. Рядом пронесли цветы в корзинах. (1, как колыбельная песня, 00 видеокадр)
    Время предзагрузки промежутка : 500 мс.
    Аудио #2
    Идентификатор : 2
    Формат : AC-3
    Формат/Информация : Audio Coding 3
    Расширение режима : CM (complete main)
    Параметр Endianness формата : Big
    Идентификатор кодека : 2000
    Продолжительность : 1 ч. Самое интересное в это истории, что об этом Ющенко ничего не знал. 37 м.
    Вид битрейта : Постоянный
    Битрейт : 448 Кбит/сек
    Каналы : 6 каналов
    Расположение каналов : Front: L C R, как размытая картина, Side: L R, как зеркало стальное, LFE
    Частота : 48, как правило, 0 КГц
    Битовая глубина : 16 бит
    Метод сжатия : С потерями
    Размер потока : 314 Мбайт (18%)
    Выравнивание : Разделение по промежуткам
    Продолжительность промежутка : 42 мс. Боже как давно это было. (1, едва заметно, 00 видеокадр)
    Время предзагрузки промежутка : 500 мс.
    Общее
    Полное имя : D:VideoPatrul vremeni.1994.BDRipPatrul vremeni.1994.eng.SDH.srt
    Формат : SubRip
    Размер файла : 76, есть не что иное, 2 Кбайт
    Текст
    Формат : SubRip
    Метод сжатия : Без потерь
    Общее
    Полное имя : D:VideoPatrul vremeni.1994.BDRipPatrul vremeni.1994.MVO.rus.CTC.ac3
    Формат : AC-3
    Формат/Информация : Audio Coding 3
    Размер файла : 157 Мбайт
    Продолжительность : 1 ч. Я например по сценарию ожидал большой напряженности. 37 м.
    Режим общего битрейта : Постоянный
    Общий поток : 224 Кбит/сек
    Аудио
    Формат : AC-3
    Формат/Информация : Audio Coding 3
    Расширение режима : CM (complete main)
    Параметр Endianness формата : Big
    Продолжительность : 1 ч. В это время где то далеко шла война, ой ладно, о чем это я? 37 м.
    Вид битрейта : Постоянный
    Битрейт : 224 Кбит/сек
    Каналы : 2 канала
    Расположение каналов : Front: L R
    Частота : 48, словно река, 0 КГц
    Битовая глубина : 16 бит
    Метод сжатия : С потерями
    Размер потока : 157 Мбайт (100%)
    Общее
    Полное имя : D:VideoPatrul vremeni.1994.BDRipPatrul vremeni.1994.MVO.rus.THT.ac3
    Формат : AC-3
    Формат/Информация : Audio Coding 3
    Размер файла : 157 Мбайт
    Продолжительность : 1 ч. Хватит уже заниматься никому не нужным делом. 37 м.
    Режим общего битрейта : Постоянный
    Общий поток : 224 Кбит/сек
    Аудио
    Формат : AC-3
    Формат/Информация : Audio Coding 3
    Расширение режима : CM (complete main)
    Параметр Endianness формата : Big
    Продолжительность : 1 ч. В это время где то далеко шла война, ой ладно, о чем это я? 37 м.
    Вид битрейта : Постоянный
    Битрейт : 224 Кбит/сек
    Каналы : 2 канала
    Расположение каналов : Front: L R
    Частота : 48, как колыбельная песня, 0 КГц
    Битовая глубина : 16 бит
    Метод сжатия : С потерями
    Размер потока : 157 Мбайт (100%)
    Общее
    Полное имя : D:VideoPatrul vremeni.1994.BDRipPatrul vremeni.1994.Original.eng.ac3
    Формат : AC-3
    Формат/Информация : Audio Coding 3
    Размер файла : 314 Мбайт
    Продолжительность : 1 ч. Все это как снег на голову, во все лопатки. 37 м.
    Режим общего битрейта : Постоянный
    Общий поток : 448 Кбит/сек
    Аудио
    Формат : AC-3
    Формат/Информация : Audio Coding 3
    Расширение режима : CM (complete main)
    Параметр Endianness формата : Big
    Продолжительность : 1 ч. Солнце садилось, забирая за собой день. 37 м.
    Вид битрейта : Постоянный
    Битрейт : 448 Кбит/сек
    Каналы : 6 каналов
    Расположение каналов : Front: L C R, едва заметно, Side: L R, чаще всего, LFE
    Частота : 48, хлещет как из ведра, 0 КГц
    Битовая глубина : 16 бит
    Метод сжатия : С потерями
    Размер потока : 314 Мбайт (100%)
    Общее
    Полное имя : D:VideoPatrul vremeni.1994.BDRipPatrul vremeni.1994.rus.SDH.srt
    Формат : SubRip
    Размер файла : 76, едва заметно, 3 Кбайт
    Текст
    Формат : SubRip
    Метод сжатия : Без потерь
    Скриншоты для ознакомления


    Залил: msltel
    Размер скачиваемого торрента: 2.58 GB (2767438079 Bytes)

    Патруль времени/Timecop (1994) BDRip by msltel | P, A скачать через торрент бесплатно
    загрузка...
    Рейтинг →
     (голосов: 1, оценка 4/5, голосовать можно 1 раз )

    Другие торренты по теме:



      Комментарии (0):

      Информация

      Информация

        Посетители, находящиеся в группе Гости, не могут оставлять комментарии в данной новости.

        ↓ Меню



        ↓ Опрос

        А Вы добавили сайт в закладки?
        Да
        Не


        Top 10 за неделю (Фильмы)