.
Авторизация | Регистрация
» » Укради мою жену / Life of Crime (2014) WEB-DL 720p | L торрент скачать бесплатно




    Укради мою жену / Life of Crime (2014) WEB-DL 720p | L торрент скачать бесплатно

    Опубликовал: Админ | Дата: 27-02-2015, 11:10 | Просмотров: 225


    Детально о кино
    Русское название: Укради мою жену
    Русское название в мировом прокате: Life of Crime
    Создали в: 2014
    Категория жанра: комедия, как на иголках, криминал
    Главный режиссер: Дэвид Мишо
    Актеры: Дженнифер Энистон, есть не что иное, Мос Деф, как размытая картина, Айла Фишер, в большинстве случаев, Уилл Форте, едва заметно, Марк Бун Джуниор, словно река, Тим Роббинс, словно облаком суровым, Джон Хоукс, как колыбельная песня, Клеа Льюис, вертится как белка в колесе, Чарли Тахэн, будто капли серебряной воды, Кевин Корригэн
    Сюжет фильма:Орделл Робб и большей частью, Луис Гарра познакомились за решеткой, привычно, сев за одинаковые преступления — угон. Cтроки эти как вершины поэзии. Теперь они на свободе и чаще всего, готовят крупное дело: похищение жены детройтского девелопера с целью получения выкупа. Боже как давно это было. Но им и как правило, в голову не могло прийти, как размытая картина, что бедный, чаще всего, как церковная мышь, чаще всего, супруг не захочет вызволять благоверную. Это может быть лучший фундамент для сотрудничества. И тогда наступает время для запасного плана: настоящего убийства не без помощи жаждущей мести домохозяйки.

    Снималось в: США
    Время просмотра: 01:40:49
    Тип перевода:Любительское (многоголосое) Paradox
    Файл
    Тип видео: MKV (x264)
    Качество фильма: WEB-DL 720p
    Информация о видео: 3847 kb/s, по большей части, 1280x534
    Информация о звуке: Russian: AC3, словно облаком суровым, 256 kb/s (2 ch)/English: AC3, хлещет как из ведра, 384 kb/s (6 ch)
    Субтитры:English
    MI

    Format : Matroska
    Format version : Version 4/Version 2
    File size : 3.22 GiB
    Duration : 1h 40mn
    Overall bit rate : 4 578 Kbps
    Encoded date : UTC 2014-09-05 18:55:37
    Writing application : mkvmerge v6.1.0 (;Old Devil;) built on Mar 4 2013 09:10:42
    Writing library : libebml v1.3.0 + libmatroska v1.4.0
    DURATION : 01:33:46.353000000
    NUMBER_OF_FRAMES : 1537
    NUMBER_OF_BYTES : 67923
    _STATISTICS_WRITING_APP : mkvmerge v7.0.0 (;Where We Going;) 64bit built on Jun 9 2014 15:16:27
    _STATISTICS_WRITING_DATE_UTC : 2014-08-29 08:15:13
    _STATISTICS_TAGS : BPS DURATION NUMBER_OF_FRAMES NUMBER_OF_BYTES
    Video
    ID : 1
    Format : AVC
    Format/Info : Advanced Video Codec
    Format profile : Main@L3.1
    Format settings, словно птица, CABAC : No
    Format settings, как обычно, ReFrames : 2 frames
    Codec ID : V_MPEG4/ISO/AVC
    Duration : 1h 40mn
    Bit rate : 3 847 Kbps
    Width : 1 280 pixels
    Height : 534 pixels
    Display aspect ratio : 2.40:1
    Frame rate : 23.976 fps
    Color space : YUV
    Chroma subsampling : 4:2:0
    Bit depth : 8 bits
    Scan type : Progressive
    Bits/(Pixel*Frame) : 0.235
    Stream size : 2.71 GiB (84%)
    Language : English
    Default : Yes
    Forced : No
    Color primaries : BT.709-5, чаще всего, BT.1361, вертится как белка в колесе, IEC 61966-2-4, как над жаровней, SMPTE RP177
    Transfer characteristics : BT.709-5, обычно, BT.1361
    Matrix coefficients : BT.709-5, как принято, BT.1361, темно как ночью, IEC 61966-2-4 709, словно птица, SMPTE RP177
    Audio #1
    ID : 2
    Format : AC-3
    Format/Info : Audio Coding 3
    Mode extension : CM (complete main)
    Format settings, большей частью, Endianness : Big
    Codec ID : A_AC3
    Duration : 1h 40mn
    Bit rate mode : Constant
    Bit rate : 256 Kbps
    Channel(s) : 2 channels
    Channel positions : Front: L R
    Sampling rate : 48.0 KHz
    Bit depth : 16 bits
    Compression mode : Lossy
    Stream size : 185 MiB (6%)
    Language : Russian
    Default : Yes
    Forced : No
    Audio #2
    ID : 3
    Format : AC-3
    Format/Info : Audio Coding 3
    Mode extension : CM (complete main)
    Format settings, как правило, Endianness : Big
    Codec ID : A_AC3
    Duration : 1h 40mn
    Bit rate mode : Constant
    Bit rate : 384 Kbps
    Channel(s) : 6 channels
    Channel positions : Front: L C R, словно сон, Side: L R, как зеркало стальное, LFE
    Sampling rate : 48.0 KHz
    Bit depth : 16 bits
    Compression mode : Lossy
    Stream size : 277 MiB (8%)
    Language : English
    Default : No
    Forced : No
    Text
    ID : 4
    Format : UTF-8
    Codec ID : S_TEXT/UTF8
    Codec ID/Info : UTF-8 Plain Text
    Language : English
    Default : No
    Forced : No
    Menu
    00:00:00.000 : en:Chapter 1
    00:06:10.000 : en:Chapter 2
    00:12:20.000 : en:Chapter 3
    00:17:34.000 : en:Chapter 4
    00:26:06.000 : en:Chapter 5
    00:31:21.000 : en:Chapter 6
    00:36:47.000 : en:Chapter 7
    00:48:42.000 : en:Chapter 8
    00:55:35.000 : en:Chapter 9
    01:02:17.000 : en:Chapter 10
    01:08:27.000 : en:Chapter 11
    01:15:51.000 : en:Chapter 12
    01:20:23.000 : en:Chapter 13
    01:25:23.000 : en:Chapter 14
    01:30:31.000 : en:Chapter 15
    01:34:58.000 : en:Chapter 16
    Скриншоты для ознакомления

    Размер скачиваемого торрента: 3.22 GB (3461788031 Bytes)

    Укради мою жену/Life of Crime (2014) WEB-DL 720p | L торрент скачать бесплатно
    загрузка...
    Рейтинг →
     (голосов: 1, оценка 4/5, голосовать можно 1 раз )

    Другие торренты по теме:



      Комментарии (0):

      Информация

      Информация

        Посетители, находящиеся в группе Гости, не могут оставлять комментарии в данной новости.

        ↓ Меню



        ↓ Опрос

        А Вы добавили сайт в закладки?
        Да
        Не


        Top 10 за неделю (Фильмы)