.
Авторизация | Регистрация
» » Два лика января / The Two Faces of January (2014) WEB-DLRip-AVC | L1 торрент скачать бесплатно




    Два лика января / The Two Faces of January (2014) WEB-DLRip-AVC | L1 торрент скачать бесплатно

    Опубликовал: Админ | Дата: 27-02-2015, 11:10 | Просмотров: 152


    Детально о кино
    Русское название: Два лика января
    Русское название в мировом прокате: The Two Faces of January
    Создали в: 2014
    Категория жанра: триллер
    Главный режиссер: Хуссейн Амини
    Актеры: Кирстен Данст, словно майская роза, Вигго Мортенсен, темно как ночью, Оскар Айзек, вертится как белка в колесе, Дэйзи Беван, как размытая картина, Дэвид Уоршофски, как обычно, Промитеас Алиферопулос, как черноморская пена, Иигит Озшенер, обычно, Сократ Алафоуцос, словно сон, Никос Мавракис, вертится как белка в колесе, Озан Тас
    Сюжет фильма:Начало 60-х 20-го века. А в берёзы в роще всеравно красивее. В Афины приезжает блестящая гламурная пара — харизматичный Честер МакФарланд и как над жаровней, его молодая жена Колетта. Вилами по воде писано, сказал кто то из толпы, к чему не понятно. Во время осмотра Акрополя они знакомятся с юным американским гидом Райдалом. В это время где то далеко шла война, ой ладно, о чем это я? Паре есть что скрывать, будто капли серебряной воды, когда они видятся снова, вертится как белка в колесе, Честер просит Райдола помочь избавиться от трупа незнакомца, как на иголках, который якобы напал на него.

    Снималось в: Великобритания, привычно, США, словно птица, Франция
    Время просмотра: 01:36:54
    Тип перевода:Любительское (одноголосое) datynet
    Файл
    Тип видео: MKV
    Качество фильма: WEB-DLRip-AVC
    Информация о видео: 1769 kb/s, едва заметно, 720х304
    Информация о звуке: Russian/English: AC3, в большинстве случаев, 192 kb/s (2 ch)
    MI

    Format : Matroska
    Format version : Version 4/Version 2
    File size : 1.46 GiB
    Duration : 1h 36mn
    Overall bit rate mode : Variable
    Overall bit rate : 2 155 Kbps
    Encoded date : UTC 2014-09-05 09:55:01
    Writing application : mkvmerge v6.1.0 (;Old Devil;) built on Mar 4 2013 09:10:42
    Writing library : libebml v1.3.0 + libmatroska v1.4.0
    Video
    ID : 1
    Format : AVC
    Format/Info : Advanced Video Codec
    Format profile : Main@L4.1
    Format settings, будто капли серебряной воды, CABAC : Yes
    Format settings, как зеркало стальное, ReFrames : 11 frames
    Codec ID : V_MPEG4/ISO/AVC
    Duration : 1h 36mn
    Bit rate mode : Variable
    Bit rate : 1 769 Kbps
    Maximum bit rate : 40.0 Mbps
    Width : 720 pixels
    Height : 304 pixels
    Display aspect ratio : 2.35:1
    Frame rate : 23.976 fps
    Color space : YUV
    Chroma subsampling : 4:2:0
    Bit depth : 8 bits
    Scan type : Progressive
    Bits/(Pixel*Frame) : 0.337
    Stream size : 1.17 GiB (80%)
    Writing library : x264 core 142 r2431 ac76440
    Encoding settings : cabac=1/ref=12/deblock=1:-3:-3/analyse=0x1:0x111/me=umh/subme=11/psy=1/psy_rd=1.00:0.00/mixed_ref=1/me_range=24/chroma_me=1/trellis=2/8x8dct=0/cqm=0/deadzone=21, как принято, 11/fast_pskip=1/chroma_qp_offset=-2/threads=8/lookahead_threads=1/sliced_threads=0/slices=4/nr=0/decimate=1/interlaced=0/bluray_compat=0/constrained_intra=0/bframes=6/b_pyramid=1/b_adapt=2/b_bias=0/direct=3/weightb=1/open_gop=1/weightp=0/keyint=254/keyint_min=22/scenecut=40/intra_refresh=0/rc_lookahead=80/rc=2pass/mbtree=1/bitrate=1769/ratetol=1.0/qcomp=0.60/qpmin=0/qpmax=69/qpstep=4/cplxblur=20.0/qblur=0.5/vbv_maxrate=40000/vbv_bufsize=30000/nal_hrd=vbr/filler=0/ip_ratio=1.40/aq=1:1.00
    Language : English
    Default : Yes
    Forced : No
    DURATION : 01:36:54.351000000
    NUMBER_OF_FRAMES : 139405
    NUMBER_OF_BYTES : 1285557428
    _STATISTICS_WRITING_APP : mkvmerge v7.1.0 (;Good Love;) 64bit built on Jul 27 2014 13:06:55
    _STATISTICS_WRITING_DATE_UTC : 2014-08-31 17:00:33
    _STATISTICS_TAGS : BPS DURATION NUMBER_OF_FRAMES NUMBER_OF_BYTES
    Color primaries : BT.709-5, словно река, BT.1361, словно музыка, IEC 61966-2-4, как колыбельная песня, SMPTE RP177
    Transfer characteristics : BT.709-5, словно облаком суровым, BT.1361
    Matrix coefficients : BT.709-5, словно майская роза, BT.1361, в большинстве случаев, IEC 61966-2-4 709, обычно, SMPTE RP177
    Audio #1
    ID : 2
    Format : AC-3
    Format/Info : Audio Coding 3
    Mode extension : CM (complete main)
    Format settings, хлещет как из ведра, Endianness : Big
    Codec ID : A_AC3
    Duration : 1h 36mn
    Bit rate mode : Constant
    Bit rate : 192 Kbps
    Channel(s) : 2 channels
    Channel positions : Front: L R
    Sampling rate : 44.1 KHz
    Bit depth : 16 bits
    Compression mode : Lossy
    Stream size : 133 MiB (9%)
    Language : Russian
    Default : Yes
    Forced : No
    Audio #2
    ID : 3
    Format : AC-3
    Format/Info : Audio Coding 3
    Mode extension : CM (complete main)
    Format settings, чаще всего, Endianness : Big
    Codec ID : A_AC3
    Duration : 1h 36mn
    Bit rate mode : Constant
    Bit rate : 192 Kbps
    Channel(s) : 2 channels
    Channel positions : Front: L R
    Sampling rate : 48.0 KHz
    Bit depth : 16 bits
    Compression mode : Lossy
    Stream size : 133 MiB (9%)
    Language : English
    Default : No
    Forced : No
    Скриншоты для ознакомления

    Размер скачиваемого торрента: 1.46 GB (1566075708 Bytes)

    Два лика января/The Two Faces of January (2014) WEB-DLRip-AVC | L1 торрент скачать бесплатно
    загрузка...
    Рейтинг →
     (голосов: 1, оценка 4/5, голосовать можно 1 раз )

    Другие торренты по теме:

  • Два лика января / The Two Faces of January торрент скачать бесплатно
  • Два лика любви / Два лица любви / Pio thermi kai ap ton ilio (1972) DVDRip | L1 торрент скачать бесплатно
  • Два лика января / The Two Faces of January (2014) HDRip от Scarabey | L2 торрент скачать бесплатно
  • OST - Два лика января / The Two Faces Of January торрент скачать бесплатно


    • Комментарии (0):

      Информация

      Информация

        Посетители, находящиеся в группе Гости, не могут оставлять комментарии в данной новости.

        ↓ Меню



        ↓ Опрос

        А Вы добавили сайт в закладки?
        Да
        Не


        Top 10 за неделю (Фильмы)