.
Авторизация | Регистрация
Хочешь лучшие торренты? Добавь свой email!
Добавить
» » Рекрут / The Recruit (2003) BDRip1080p от BT-Club скачать через торрент бесплатно




    Рекрут / The Recruit (2003) BDRip1080p от BT-Club скачать через торрент бесплатно

    Опубликовал: Админ | Дата: 27-02-2015, 11:10 | Просмотров: 182


    Русское название:Рекрут
    Русское название в мировом прокате:The Recruit
    Создали в:2003
    Категория жанра:боевик, словно облаком суровым, триллер, привычно, драма
    Главный режиссер:Роджер Дональдсон
    Актеры:Аль Пачино, словно майская роза, Колин Фаррелл, словно музыка, Бриджет Мойнэан, вертится как белка в колесе, Гэбриел Махт, как на иголках, Кеннет Митчел, в большинстве случаев, Майк Рилба, как принято, Рон Лиа, словно река, Карл Прюнер, словно птица, Джини Колледжа, словно река, Дженни Ливайн, едва заметно, Angelo Tsarouchas, как черноморская пена, Veronica Hurnick, есть не что иное, Eugene Lipinski, как на иголках, Марк Эллис, как правило, Ричард Фицпатрик, будто капли серебряной воды, Джон Уотсон, как зеркало стальное, Крис Оуенс, есть не что иное, Джесика Греко, как колыбельная песня, Сэм Калилих, как размытая картина, Мервин Мондесер, темно как ночью, Elisa Moolecherry
    Сюжет фильма:Джеймс Клэйтон вовсе не мечтал о карьере шпиона. Это же восьмая вода на киселе. Но соблазн узнать правду о таинственном исчезновении в 1990 году своего отца - секретного агента, большей частью, заставляет его завербоваться в ЦРУ. В это время ветер тихо покачивал деревья. Новоиспеченный рекрут неплохо проходит один тест за другим, в большинстве случаев, однако задания становятся все изощреннее.
    Обыденные события оказываются скрытой проверкой, как зеркало стальное, а наставник героя, словно майская роза, матерый разведчик Уолтер Берк все настойчивее намекает: происходящее на самом деле может быть не тем, словно сон, чем кажется. Все это как снег на голову, во все лопатки. Обстановка накаляется с каждым днем, обычно, и будто капли серебряной воды, однажды Клэйтон узнает причину этого: в Лэнгли завелся крот, едва заметно, и как размытая картина именно ему предстоит вычислить предателя.
    Что это, будто капли серебряной воды, очередной тест? Или шутки кончились, словно птица, и как над жаровней, на кону - национальная безопасность?..
    Снималось в:США
    Время просмотра:01:54:59
    Тип видео:MKV
    Информация о видео:1920x816 at 23.976 fps, будто капли серебряной воды, MPEG4-AVC, как обычно, ~8000 kbps avg
    Информация о звуке#1:Russian: 48 kHz, обычно, AC3, обычно, 2/0 (L, словно музыка, R) ch, как черноморская пена, ~192.00 kbps avg |Дубляж, хлещет как из ведра, R5|
    Информация о звуке#2:Russian: 48 kHz/16-bit, по большей части, DTS 5.1, хлещет как из ведра, ~1510.00 kbps avg |Многоголосый закадровый, обычно, Видеосервис|
    Информация о звуке#3:Russian: 48 kHz/16-bit, как обычно, DTS 5.1, обычно, ~1510.00 kbps avg |Многоголосый закадровый, будто капли серебряной воды, FDV|
    Информация о звуке#4:Russian: 48 kHz/16-bit, как обычно, DTS 5.1, как правило, ~1510.00 kbps avg |Одноголосый закадровый, словно майская роза, Ю.Живов|
    Информация о звуке#5:English: 48 kHz/16-bit, будто капли серебряной воды, DTS 5.1, темно как ночью, ~1510.00 kbps avg
    Субтитры:Russian
    Скриншоты для ознакомления




    MI
    Формат файла: .mkv (Matroska)
    Размер файла: 11.44 GB
    Длительность: 1h 55mn
    Навигация по главам: Есть
    Битрейт (все потоки): 14.2 Mbps
    Файл создан: UTC 2014-09-03 14:55:42
    Создан при помощи: mkvmerge v7.0.0 (;Where We Going;) 32bit built on Jun 9 2014 15:08:34
    Использовалась библиотека: libebml v1.3.0 + libmatroska v1.4.1
    Обложка: Отсутствует
    :
    Название: Rekrut_1080p_BT-Club_polnik
    :
    Тип потока: Видео
    Длительность: 01:55:00
    Кодек: AVC
    Кодек/описание: Advanced Video Codec
    Кодек/профиль: High@L4.1
    Кодек/ID: V_MPEG4/ISO/AVC
    Кодек/CABAC: Yes
    Кодек/ReFrames: 5 frames
    Размеры изображения: 1920 x 816 (2.35:1)
    Частота кадров: 23.976 fps
    Частота кадров/тип: Constant
    Размер потока: 6.20 GiB (54%)
    Битрейт: 7 999 Kbps
    Библиотека кодирования: x264 core 142 r2431 ac76440
    Цветовое пространство: YUV
    Тип развёртки: Progressive
    Глубина: 8 bits
    Настройки кодирования: cabac=1/ref=5/deblock=1:0:0/analyse=0x3:0x133/me=tesa/subme=11/psy=1/psy_rd=1.00:0.15/mixed_ref=1/me_range=24/chroma_me=1/trellis=2/8x8dct=1/cqm=0/deadzone=21, как колыбельная песня, 11/fast_pskip=0/chroma_qp_offset=-3/threads=12/lookahead_threads=1/sliced_threads=0/nr=100/decimate=1/interlaced=0/bluray_compat=0/constrained_intra=0/bframes=5/b_pyramid=2/b_adapt=2/b_bias=0/direct=3/weightb=1/open_gop=0/weightp=2/keyint=230/keyint_min=22/scenecut=40/intra_refresh=0/rc_lookahead=60/rc=2pass/mbtree=1/bitrate=7999/ratetol=1.0/qcomp=0.60/qpmin=0/qpmax=69/qpstep=4/cplxblur=20.0/qblur=0.5/vbv_maxrate=62500/vbv_bufsize=78125/nal_hrd=none/filler=0/ip_ratio=1.40/aq=1:1.00
    :
    Тип потока: Звук #1
    Язык: Russian
    Название: Дублированный
    Длительность: 01:55:00.143
    Кодек: AC-3
    Кодек/описание: Audio Coding 3
    Кодек/ID: A_AC3
    Частота дискретизации: 48.0 KHz
    Каналов: 2 channels
    Битрейт: 192 Kbps
    Битрейт/тип: Constant
    Размер потока: 158 MiB (1%)
    Глубина: 16 bits
    Метод сжатия: Lossy
    :
    Тип потока: Звук #2
    Язык: Russian
    Название: Видеосервис
    Длительность: 01:55:00.143
    Кодек: DTS
    Кодек/описание: Digital Theater Systems
    Кодек/ID: A_DTS
    Частота дискретизации: 48.0 KHz
    Каналов: 6 channels
    Битрейт: 1 509 Kbps
    Битрейт/тип: Constant
    Размер потока: 1.21 GiB (11%)
    Глубина: 24 bits
    Метод сжатия: Lossy
    :
    Тип потока: Звук #3
    Язык: Russian
    Название: FDV
    Длительность: 01:55:00.143
    Кодек: DTS
    Кодек/описание: Digital Theater Systems
    Кодек/ID: A_DTS
    Частота дискретизации: 48.0 KHz
    Каналов: 6 channels
    Битрейт: 1 509 Kbps
    Битрейт/тип: Constant
    Размер потока: 1.21 GiB (11%)
    Глубина: 24 bits
    Метод сжатия: Lossy
    :
    Тип потока: Звук #4
    Язык: Russian
    Название: Живов
    Длительность: 01:55:00.143
    Кодек: DTS
    Кодек/описание: Digital Theater Systems
    Кодек/ID: A_DTS
    Частота дискретизации: 48.0 KHz
    Каналов: 6 channels
    Битрейт: 1 509 Kbps
    Битрейт/тип: Constant
    Размер потока: 1.21 GiB (11%)
    Глубина: 24 bits
    Метод сжатия: Lossy
    :
    Тип потока: Звук #5
    Язык: English
    Название: Оригинал
    Длительность: 01:55:00.143
    Кодек: DTS
    Кодек/описание: Digital Theater Systems
    Кодек/ID: A_DTS
    Частота дискретизации: 48.0 KHz
    Каналов: 6 channels
    Битрейт: 1 509 Kbps
    Битрейт/тип: Constant
    Размер потока: 1.21 GiB (11%)
    Глубина: 24 bits
    Метод сжатия: Lossy
    :
    Тип потока: Субтитры #1
    Язык: Russian
    Формат: PGS
    Формат/подробно: The same subtitle format used on BDs/HD-DVDs
    Название: Русские
    :
    Тип потока: Меню #1

    Залил: polnik
    Размер скачиваемого торрента: 11.44 GB (12278561316 Bytes)

    Рекрут/The Recruit (2003) BDRip1080p от BT-Club скачать через торрент бесплатно
    загрузка...
    Рейтинг →
     (голосов: 1, оценка 4/5, голосовать можно 1 раз )

    Другие торренты по теме:



      Комментарии (0):

      Информация

      Информация

        Посетители, находящиеся в группе Гости, не могут оставлять комментарии в данной новости.

        ↓ Меню



        ↓ Опрос

        А Вы добавили сайт в закладки?
        Да
        Не


        Top 10 за месяц (Фильмы)