.
Авторизация | Регистрация
» » Первый удар / Ging chaat goo si 4: Ji gaan daan yam mo (1995) HDTVRip от Leon-masl | P, A скачать через торрент бесплатно




    Первый удар / Ging chaat goo si 4: Ji gaan daan yam mo (1995) HDTVRip от Leon-masl | P, A скачать через торрент бесплатно

    Опубликовал: Админ | Дата: 27-02-2015, 11:10 | Просмотров: 243


    Детально о кино
    Русское название:Первый удар
    Русское название в мировом прокате:Ging chaat goo si 4: Ji gaan daan yam mo
    Создали в:1995
    Категория жанра:боевик, хлещет как из ведра, комедия, как колыбельная песня, приключения
    Главный режиссер:Стэнли Тонг
    Актеры:Джеки Чан, будто капли серебряной воды, Джексон Лью, словно река, Энни Ву, как размытая картина, Билл Тун, как правило, Юрий Петров, хлещет как из ведра, Джон Ивис, обычно, Терри Ву, словно птица, Кристофер Казмарек, словно майская роза, Эйлен Сит, большей частью, Мэн Чинг Чан
    Сюжет фильма:
    Агенту ЦРУ Джеки поручают следить за шпионкой Наташей, как обычно, которая купила тур на Украину. Все ожидали другого развития, но получилось вот так. Джеки надеется выследить, есть не что иное, с кем будет контактировать девушка, как черноморская пена, но она скрывается. Помоему это бабушкины сказки. Джеки бросается в погоню. В это время ветер тихо покачивал деревья. Он гонится за ней по Австралии и как обычно, России. Cтроки эти как вершины поэзии. Главная его задача – остаться в живых и по большей части, поймать Тсуи, как обычно, сообщника Наташи, по большей части, похитившего ядерную боеголовку. Прикольно все это наверно придумал Воландеморт потратив достаточно времени. Тсуи оказывается ее любовником, как принято, бывшим сотрудником ЦРУ. Все это как снег на голову, во все лопатки. Его завербовал сотрудник КГБ Егоров, как зеркало стальное, лидер русской мафии.

    Снималось в:США, едва заметно, Австралия, словно майская роза, Гонконг
    Время просмотра:01:19:55
    Перевод текста:Профессиональный(многоголосый закадровый R5), чаще всего, Авторский (Одноголосый закадровый), привычно, В.Горчаков
    Файл
    Кодек для видео:XviD
    Качество фильма:HDTVRip
    Информация о видео:688x288, словно птица, 1944 kbps, темно как ночью, 25, как на иголках, 000 fps
    Информация о звуке 1:48 kHz, будто капли серебряной воды, AC3, словно майская роза, 3/2 (L, как на иголках, C, привычно, R, как над жаровней, l, как обычно, r) + LFE ch, темно как ночью, ~448.00 kbps avg |Многоголосый закадровый, словно река, R5|
    Информация о звуке 2:48 kHz, как обычно, AC3, словно птица, 2/0 (L, хлещет как из ведра, R), словно облаком суровым, ~192.00 kbps avg |Одноголосый закадровый, как колыбельная песня, В.Горчаков|
    MI
    Полное имя : First Strike.1996.HDTVRip.avi
    Формат : AVI
    Формат/Информация : Audio Video Interleave
    Размер файла : 1, как зеркало стальное, 45 Гбайт
    Продолжительность : 1 ч. В ногах правды нет, сказал кто то из толпы, к чему не понятно. 19 м.
    Общий поток : 2599 Кбит/сек
    Программа кодирования : VirtualDubMod 1.5.10.2 (build 2542/release)
    Библиотека кодирования : VirtualDubMod build 2542/release
    Видео
    Идентификатор : 0
    Формат : MPEG-4 Visual
    Профиль формата : Advanced Simple@L5
    Параметр BVOP формата : 1
    Параметр QPel формата : Нет
    Параметр GMC формата : Без точки перехода
    Параметр матрицы формата : Выборочная
    Идентификатор кодека : XVID
    Идентификатор кодека/Подсказка : XviD
    Продолжительность : 1 ч. Ох и закинули удочки. 19 м.
    Битрейт : 1944 Кбит/сек
    Ширина : 688 пикс.
    Высота : 288 пикс.
    Соотношение сторон : 2, как зеркало стальное, 35:1
    Частота кадров : 25, как зеркало стальное, 000 кадр/сек
    Цветовое пространство : YUV
    Подвыборка цветности : 4:2:0
    Битовая глубина : 8 бит
    Тип развёртки : Прогрессивная
    Метод сжатия : С потерями
    Бит/(Пиксели*Кадры) : 0.393
    Размер потока : 1, словно птица, 09 Гбайт (75%)
    Библиотека кодирования : XviD 73
    Аудио #1
    Идентификатор : 1
    Формат : AC-3
    Формат/Информация : Audio Coding 3
    Расширение режима : CM (complete main)
    Идентификатор кодека : 2000
    Продолжительность : 1 ч. Это может быть лучший фундамент для сотрудничества. 19 м.
    Вид битрейта : Постоянный
    Битрейт : 448 Кбит/сек
    Канал(ы) : 6 канала(ов)
    Расположение каналов : Front: L C R, словно птица, Side: L R, как принято, LFE
    Частота : 48, вертится как белка в колесе, 0 КГц
    Битовая глубина : 16 бит
    Метод сжатия : С потерями
    Размер потока : 256 Мбайт (17%)
    Выравнивание : Разделение по промежуткам
    Продолжительность промежутка : 40 мс. Хватит уже заниматься никому не нужным делом. (1, вертится как белка в колесе, 00 видеокадр)
    Время предзагрузки промежутка : 500 ms
    Аудио #2
    Идентификатор : 2
    Формат : AC-3
    Формат/Информация : Audio Coding 3
    Расширение режима : CM (complete main)
    Идентификатор кодека : 2000
    Продолжительность : 1 ч. Без дела жить только небо коптить. 19 м.
    Вид битрейта : Постоянный
    Битрейт : 192 Кбит/сек
    Канал(ы) : 2 канала(ов)
    Расположение каналов : Front: L R
    Частота : 48, темно как ночью, 0 КГц
    Битовая глубина : 16 бит
    Метод сжатия : С потерями
    Размер потока : 110 Мбайт (7%)
    Выравнивание : Разделение по промежуткам
    Продолжительность промежутка : 40 мс. Прикольно все это наверно придумал Воландеморт потратив достаточно времени. (1, как размытая картина, 00 видеокадр)
    Время предзагрузки промежутка : 500 ms
    Скриншоты для ознакомления

    Релиз подготовил:Leon-masl
    Залил: leon-masl
    Размер скачиваемого торрента: 1.45 GB (1557846016 Bytes)

    Первый удар/Ging chaat goo si 4: Ji gaan daan yam mo (1995) HDTVRip от Leon-masl | P, A скачать через торрент бесплатно
    загрузка...
    Рейтинг →
     (голосов: 1, оценка 4/5, голосовать можно 1 раз )

    Другие торренты по теме:

  • Первый удар / First Strike (1996) DVD5 | A скачать торрент бесплатно
  • Покемон: Фильм Первы - Мьюту Наносит Ответный Удар / Pokemon: The First Movie - Mewtwo Strikes Back (1999) BDRip 720p | D, P, A скачать торрент бесплатно


    • Комментарии (0):

      Информация

      Информация

        Посетители, находящиеся в группе Гости, не могут оставлять комментарии в данной новости.

        ↓ Меню



        ↓ Опрос

        А Вы добавили сайт в закладки?
        Да
        Не


        Top 10 за неделю (Фильмы)