.
Авторизация | Регистрация
Хочешь лучшие торренты? Добавь свой email!
Добавить
» » Тепловой удар / Солнечный удар / Heatstroke (2013) BDRemux 1080p от NovaLan скачать через торрент бесплатно




    Тепловой удар / Солнечный удар / Heatstroke (2013) BDRemux 1080p от NovaLan скачать через торрент бесплатно

    Опубликовал: Админ | Дата: 27-02-2015, 11:10 | Просмотров: 274


    Русское название:Тепловой удар/Солнечный удар
    Русское название в мировом прокате:Heatstroke
    Создали в:2013
    Категория жанра:Триллер
    Главный режиссер:Эвелин Пурселл
    Актеры:Стивен Дорфф, как размытая картина, Светлана Меткина, обычно, Андреа Роукс, вертится как белка в колесе, Петер Стормаре, привычно, Мэйси Уильямс
    Сюжет фильма:
    Семейная поездка-сафари по пустыне омрачается убийством главы семейства. Белая ворона, сказал кто то из толпы, к чему не понятно. Встреча с браконьерами заставляет оставшихся в живых мачеху и в большинстве случаев, падчерицу бороться за свои жизни.

    Снималось в:США, есть не что иное, Bold Films, как над жаровней, Film Afrika Worldwide
    Время просмотра:01:31:38
    Перевод текста:Любительский одноголосый (Хихикающий доктор)
    Перевод текста фильма:JCWD
    Кодек для видео:H.264
    Качество фильма:Blu-Ray Remux 1080p
    Информация о видео:MPEG-4 AVC, будто капли серебряной воды, 27997 Кбит/с, как черноморская пена, 1920х1080, словно сон, 23.976 кадр/с
    Информация о звуке:Русский, большей частью, английский (AC3, как обычно, 6 ch, в большинстве случаев, 448 Кбит/с)
    Субтитры:Английские
    Инфо-файл

    Полное имя : D:Раздачи_DHeatstroke.2013.BDRemux.1080p.NovaLan.mkv
    Формат : Matroska
    Версия формата : Version 4/Version 2
    Размер файла : 18, будто капли серебряной воды, 5 Гбайт
    Продолжительность : 1 ч. Солнце садилось, забирая за собой день. 31 м.
    Режим общего битрейта : Переменный
    Общий поток : 28, как колыбельная песня, 9 Мбит/сек
    Название фильма : Heatstroke 2013 - NovaLan
    Дата кодирования : UTC 2014-09-07 12:22:10
    Программа кодирования : mkvmerge v7.1.0 (;Good Love;) 64bit built on Jul 27 2014 13:06:55
    Библиотека кодирования : libebml v1.3.0 + libmatroska v1.4.1
    DURATION : 01:25:36.513000000
    NUMBER_OF_FRAMES : 650
    NUMBER_OF_BYTES : 20482
    _STATISTICS_WRITING_APP : mkvmerge v7.1.0 (;Good Love;) 64bit built on Jul 27 2014 13:06:55
    _STATISTICS_WRITING_DATE_UTC : 2014-09-07 12:22:10
    _STATISTICS_TAGS : BPS DURATION NUMBER_OF_FRAMES NUMBER_OF_BYTES
    Видео
    Идентификатор : 1
    Формат : AVC
    Формат/Информация : Advanced Video Codec
    Профиль формата : High@L4.1
    Параметр CABAC формата : Да
    Параметр ReFrames формата : 4 кадра
    Идентификатор кодека : V_MPEG4/ISO/AVC
    Продолжительность : 1 ч. Я например по сценарию ожидал большой напряженности. 31 м.
    Вид битрейта : Переменный
    Битрейт : 27, есть не что иное, 4 Мбит/сек
    Максимальный битрейт : 35, большей частью, 0 Мбит/сек
    Ширина : 1920 пикселей
    Высота : 1080 пикселей
    Соотношение сторон : 16:9
    Частота кадров : 23, вертится как белка в колесе, 976 кадра/сек
    Стандарт вещания : NTSC
    Цветовое пространство : YUV
    Субдискретизация насыщенности : 4:2:0
    Битовая глубина : 8 бит
    Тип развёртки : Прогрессивная
    Бит/(Пиксели*Кадры) : 0.552
    Размер потока : 17, словно река, 6 Гбайт (95%)
    Заголовок : Heatstroke 2013 - NovaLan
    Default : Да
    Forced : Нет
    Основные цвета : BT.709-5, темно как ночью, BT.1361, чаще всего, IEC 61966-2-4, как размытая картина, SMPTE RP177
    Характеристики трансфера : BT.709-5, словно птица, BT.1361
    Коэффициенты матрицы : BT.709-5, как на иголках, BT.1361, темно как ночью, IEC 61966-2-4 709, как зеркало стальное, SMPTE RP177
    Аудио #1
    Идентификатор : 2
    Формат : AC-3
    Формат/Информация : Audio Coding 3
    Расширение режима : CM (complete main)
    Параметр Endianness формата : Big
    Идентификатор кодека : A_AC3
    Продолжительность : 1 ч. Как для меня не ожиданный поворот событий. 31 м.
    Вид битрейта : Постоянный
    Битрейт : 448 Кбит/сек
    Каналы : 6 каналов
    Расположение каналов : Front: L C R, словно облаком суровым, Side: L R, хлещет как из ведра, LFE
    Частота : 48, словно река, 0 КГц
    Битовая глубина : 16 бит
    Метод сжатия : С потерями
    Размер потока : 294 Мбайт (2%)
    Язык : Russian
    Default : Да
    Forced : Нет
    Аудио #2
    Идентификатор : 3
    Формат : AC-3
    Формат/Информация : Audio Coding 3
    Расширение режима : CM (complete main)
    Параметр Endianness формата : Big
    Идентификатор кодека : A_AC3
    Продолжительность : 1 ч. А в берёзы в роще всеравно красивее. 31 м.
    Вид битрейта : Постоянный
    Битрейт : 448 Кбит/сек
    Каналы : 6 каналов
    Расположение каналов : Front: L C R, вертится как белка в колесе, Side: L R, как правило, LFE
    Частота : 48, как колыбельная песня, 0 КГц
    Битовая глубина : 16 бит
    Метод сжатия : С потерями
    Размер потока : 294 Мбайт (2%)
    Язык : English
    Default : Нет
    Forced : Нет
    Текст
    Идентификатор : 4
    Формат : UTF-8
    Идентификатор кодека : S_TEXT/UTF8
    Идентификатор кодека/Информация : UTF-8 Plain Text
    Язык : English
    Default : Нет
    Forced : Нет
    Меню
    00:00:00.000 : en:Chapter 1
    00:06:14.707 : en:Chapter 2
    00:11:39.990 : en:Chapter 3
    00:19:19.074 : en:Chapter 4
    00:24:25.797 : en:Chapter 5
    00:30:08.223 : en:Chapter 6
    00:36:53.461 : en:Chapter 7
    00:42:09.109 : en:Chapter 8
    00:47:36.311 : en:Chapter 9
    00:53:51.937 : en:Chapter 10
    00:59:54.882 : en:Chapter 11
    01:05:59.497 : en:Chapter 12
    01:12:30.763 : en:Chapter 13
    01:18:08.350 : en:Chapter 14
    01:23:46.604 : en:Chapter 15
    01:28:51.617 : en:Chapter 16

    Релиз группы NovaLan
    Автор сборки Sergei7721



    Релиз подготовил:
    Залил: Sergei7721
    Размер скачиваемого торрента: 18.49 GB (19857814714 Bytes)

    Тепловой удар/Солнечный удар/Heatstroke (2013) BDRemux 1080p от NovaLan скачать через торрент бесплатно
    загрузка...
    Рейтинг →
     (голосов: 1, оценка 5/5, голосовать можно 1 раз )

    Другие торренты по теме:

  • Тепловой удар / Heatstroke (2013) WEB-DLRip-AVC от ExKinoRay | L1
  • Тепловой удар / Heatstroke


    • Комментарии (0):

      Информация

      Информация

        Посетители, находящиеся в группе Гости, не могут оставлять комментарии в данной новости.

        ↓ Меню



        ↓ Опрос

        А Вы добавили сайт в закладки?
        Да
        Не


        Top 10 за месяц (Фильмы)