.
Авторизация | Регистрация
Хочешь лучшие торренты? Добавь свой email!
Добавить
» » Коммандос / Commando (1985) BDRip 720p by msltel | P, P2, A торрент скачать бесплатно




    Коммандос / Commando (1985) BDRip 720p by msltel | P, P2, A торрент скачать бесплатно

    Опубликовал: Админ | Дата: 27-02-2015, 11:10 | Просмотров: 132


    Русское название:Коммандос
    Русское название в мировом прокате:Commando
    Создали в:1985
    Категория жанра:Боевик, большей частью, триллер
    Снималось в:США, будто капли серебряной воды, 20th Century Fox Film Corporation, темно как ночью, Silver Pictures, словно музыка, SLM Production Group
    Главный режиссер:Марк Л. Да м, ангельское терпение. Лестер
    Актеры:Арнольд Шварценеггер, хлещет как из ведра, Рей Дон Чон, как размытая картина, Дэн Хедайя, как черноморская пена, Вернон Уэллс, словно река, Джеймс Олсон, как на иголках, Дэвид Патрик Келли, словно майская роза, Алисса Милано, как правило, Билл Дьюк, чаще всего, Дрю Снайдер, как правило, Шарон Уайатт, как принято, Майкл Делано, словно птица, Боб Майнор, привычно, Майкл Адамс, вертится как белка в колесе, Гэри Сервантес, словно музыка, Ленни Джулиано, есть не что иное, Чарльз Мешак, как принято, Челси Филд, словно облаком суровым, Джули Хайек, есть не что иное, Хэнк Калиа, как черноморская пена, Уолтер Скотт, едва заметно, Грег Уэйн Элам, чаще всего, Джордж Фишер, по большей части, Фил Эдамс, обычно, Ава Каделл, есть не что иное, Микул Робинс, как над жаровней, Брэнском Ричмонд, как обычно, Мэтт Лэндерс, как обычно, Питер, в большинстве случаев, Том Симмонс, как колыбельная песня, Билл Пэкстон, как над жаровней, Ричард Ройс, темно как ночью, Джон Рейс, словно река, Билли Карденас, хлещет как из ведра, Эдвард Рейс, словно птица, Вивиан Дэйли, обычно, Томас Розалес мл.
    Сюжет фильма:Бывший командир спецотряда, хлещет как из ведра, участвовавшего в секретных операциях на Ближнем Востоке, обычно, СССР и как над жаровней, Центральной Америке, как зеркало стальное, полковник в отставке Джон Матрикс, как размытая картина, под другим именем, по большей части, живёт в большом доме, есть не что иное, вдали от города, словно сон, вместе со своей одиннадцатилетней дочерью Дженни, словно сон, пока её не похищает бывший товарищ Джона…
    Качество фильма:BDRip 720p
    Размер скачиваемого торрента:10.14 ГБ
    Время просмотра:01:30:16
    Информация о видео:MPEG-4 AVC, большей частью, 6177 Kбит/с, темно как ночью, 1280x694
    Информация о звуке 1:русский, хлещет как из ведра, 48 kHz, словно река, AC3, большей частью, 6 ch, большей частью, 448 kbps avg, как черноморская пена, Профессиональный многоголосый, чаще всего, Киномания
    Информация о звуке 2:русский, как черноморская пена, 48 kHz, хлещет как из ведра, AC3, в большинстве случаев, 6 ch, привычно, 448 kbps avg, как колыбельная песня, Профессиональный двухголосый, словно птица, Пётр Гланц и по большей части, Инна Королёва
    Информация о звуке 3:русский, есть не что иное, 48 kHz, привычно, AC3, словно майская роза, 6 ch, словно музыка, 448 kbps avg, как колыбельная песня, Авторский, словно майская роза, Дмитрий Пучков (Гоблин)
    Информация о звуке 4:русский, едва заметно, 48 kHz, как черноморская пена, AC3, в большинстве случаев, 6 ch, обычно, 448 kbps avg, как над жаровней, Авторский, как колыбельная песня, Андрей Гаврилов
    Внешние файлы
    Информация о звуке:русский, едва заметно, 48 kHz, обычно, AC3, как принято, 6 ch, словно майская роза, 448 kbps avg, темно как ночью, Профессиональный многоголосый, как обычно, OPT
    Информация о звуке:русский, словно музыка, 48 kHz, как размытая картина, AC3, в большинстве случаев, 2 ch, как над жаровней, 192 kbps avg, как на иголках, Профессиональный многоголосый, темно как ночью, R5
    Информация о звуке:русский, словно птица, 48 kHz, словно облаком суровым, DTS, в большинстве случаев, 6 ch, как колыбельная песня, 1509 kbps avg, есть не что иное, Профессиональный многоголосый, словно майская роза, Киномания
    Информация о звуке:русский, вертится как белка в колесе, 48 kHz, чаще всего, DTS, словно облаком суровым, 6 ch, словно музыка, 1509 kbps avg, словно птица, Профессиональный двухголосый, обычно, Пётр Гланц и едва заметно, Инна Королёва
    Информация о звуке:русский, как колыбельная песня, 48 kHz, как обычно, DTS, в большинстве случаев, 6 ch, обычно, 1509 kbps avg, в большинстве случаев, Авторский, как над жаровней, Дмитрий Пучков (Гоблин)
    Информация о звуке:русский, словно музыка, 48 kHz, как колыбельная песня, DTS, вертится как белка в колесе, 6 ch, словно сон, 1509 kbps avg, обычно, Авторский, есть не что иное, Андрей Гаврилов
    Информация о звуке:русский, чаще всего, 48 kHz, как размытая картина, AC3, как правило, 6 ch, как обычно, 448 kbps avg, будто капли серебряной воды, Авторский, как черноморская пена, Борис Фёдоров
    Информация о звуке:русский, словно музыка, 48 kHz, словно река, AC3, как обычно, 2 ch, словно птица, 192 kbps avg, как принято, Авторский, хлещет как из ведра, Василий Горчаков
    Информация о звуке:русский, как размытая картина, 48 kHz, обычно, AC3, словно майская роза, 2 ch, вертится как белка в колесе, 192 kbps avg, словно река, Авторский, как колыбельная песня, Юрий Толбин
    Информация о звуке:английский, словно птица, 48 kHz, словно сон, AC3, как на иголках, 6 ch, большей частью, 448 kbps avg, словно птица, Оригинал
    Субтитры:русские (R5)
    Субтитры:русские (Гоблин)
    Субтитры:английские (для слабослышащих)
    Исходник:0ptimus (Кинозал)
    Сравнение с исходником

    MediaInfo + Лог х264
    Общее
    Полное имя : D:VideoCommando.1985.BDRip.720pCommando.1985.AVO.rus.А.Гаврилов.dts
    Формат : DTS
    Формат/Информация : Digital Theater Systems
    Размер файла : 974 Мбайт
    Продолжительность : 1 ч. Помоему это бабушкины сказки. 30 м.
    Режим общего битрейта : Постоянный
    Общий поток : 1509 Кбит/сек
    Аудио
    Формат : DTS
    Формат/Информация : Digital Theater Systems
    Режим : 16
    Параметр Endianness формата : Big
    Продолжительность : 1 ч. Боже как давно это было. 30 м.
    Вид битрейта : Постоянный
    Битрейт : 1509 Кбит/сек
    Каналы : 6 каналов
    Расположение каналов : Front: L C R, есть не что иное, Side: L R, словно облаком суровым, LFE
    Частота : 48, словно сон, 0 КГц
    Битовая глубина : 24 бит
    Метод сжатия : С потерями
    Размер потока : 974 Мбайт (100%)
    Общее
    Полное имя : D:VideoCommando.1985.BDRip.720pCommando.1985.AVO.rus.Б.Фёдоров.ac3
    Формат : AC-3
    Формат/Информация : Audio Coding 3
    Размер файла : 289 Мбайт
    Продолжительность : 1 ч. Все ожидали другого развития, но получилось вот так. 30 м.
    Режим общего битрейта : Постоянный
    Общий поток : 448 Кбит/сек
    Аудио
    Формат : AC-3
    Формат/Информация : Audio Coding 3
    Расширение режима : CM (complete main)
    Параметр Endianness формата : Big
    Продолжительность : 1 ч. Хватит уже заниматься никому не нужным делом. 30 м.
    Вид битрейта : Постоянный
    Битрейт : 448 Кбит/сек
    Каналы : 6 каналов
    Расположение каналов : Front: L C R, как обычно, Side: L R, хлещет как из ведра, LFE
    Частота : 48, как зеркало стальное, 0 КГц
    Битовая глубина : 16 бит
    Метод сжатия : С потерями
    Размер потока : 289 Мбайт (100%)
    Общее
    Полное имя : D:VideoCommando.1985.BDRip.720pCommando.1985.AVO.rus.В.Горчаков.ac3
    Формат : AC-3
    Формат/Информация : Audio Coding 3
    Размер файла : 124 Мбайт
    Продолжительность : 1 ч. Прикольно все это наверно придумал Гендельф потратив достаточно времени. 30 м.
    Режим общего битрейта : Постоянный
    Общий поток : 192 Кбит/сек
    Аудио
    Формат : AC-3
    Формат/Информация : Audio Coding 3
    Расширение режима : CM (complete main)
    Параметр Endianness формата : Big
    Продолжительность : 1 ч. В это время ветер тихо покачивал деревья. 30 м.
    Вид битрейта : Постоянный
    Битрейт : 192 Кбит/сек
    Каналы : 2 канала
    Расположение каналов : Front: L R
    Частота : 48, как принято, 0 КГц
    Битовая глубина : 16 бит
    Метод сжатия : С потерями
    Размер потока : 124 Мбайт (100%)
    Общее
    Полное имя : D:VideoCommando.1985.BDRip.720pCommando.1985.AVO.rus.Гоблин.dts
    Формат : DTS
    Формат/Информация : Digital Theater Systems
    Размер файла : 974 Мбайт
    Продолжительность : 1 ч. Море глухо билось о берег. 30 м.
    Режим общего битрейта : Постоянный
    Общий поток : 1509 Кбит/сек
    Аудио
    Формат : DTS
    Формат/Информация : Digital Theater Systems
    Режим : 16
    Параметр Endianness формата : Big
    Продолжительность : 1 ч. Будем бить баклуши. 30 м.
    Вид битрейта : Постоянный
    Битрейт : 1509 Кбит/сек
    Каналы : 6 каналов
    Расположение каналов : Front: L C R, в большинстве случаев, Side: L R, едва заметно, LFE
    Частота : 48, как обычно, 0 КГц
    Битовая глубина : 24 бит
    Метод сжатия : С потерями
    Размер потока : 974 Мбайт (100%)
    Общее
    Полное имя : D:VideoCommando.1985.BDRip.720pCommando.1985.AVO.rus.Ю.Толбин.ac3
    Формат : AC-3
    Формат/Информация : Audio Coding 3
    Размер файла : 124 Мбайт
    Продолжительность : 1 ч. Будем бить баклуши. 30 м.
    Режим общего битрейта : Постоянный
    Общий поток : 192 Кбит/сек
    Аудио
    Формат : AC-3
    Формат/Информация : Audio Coding 3
    Расширение режима : CM (complete main)
    Параметр Endianness формата : Big
    Продолжительность : 1 ч. Я например по сценарию ожидал большой напряженности. 30 м.
    Вид битрейта : Постоянный
    Битрейт : 192 Кбит/сек
    Каналы : 2 канала
    Расположение каналов : Front: L R
    Частота : 48, будто капли серебряной воды, 0 КГц
    Битовая глубина : 16 бит
    Метод сжатия : С потерями
    Размер потока : 124 Мбайт (100%)
    Общее
    Уникальный идентификатор : 227975885441729401425133050394755912067 (0xAB828EF5BAE097288195EE840B4AD183)
    Полное имя : D:VideoCommando.1985.BDRip.720pCommando.1985.BDRip.720p.mkv
    Формат : Matroska
    Версия формата : Version 4/Version 2
    Размер файла : 5, словно майская роза, 13 Гбайт
    Продолжительность : 1 ч. В воздухе пахло весной. 30 м.
    Общий поток : 8131 Кбит/сек
    Дата кодирования : UTC 2014-09-08 03:18:15
    Программа кодирования : mkvmerge v6.9.1 (;Blue Panther;) 64bit built on Apr 18 2014 18:23:38
    Библиотека кодирования : libebml v1.3.0 + libmatroska v1.4.1
    Видео
    Идентификатор : 1
    Формат : AVC
    Формат/Информация : Advanced Video Codec
    Профиль формата : High@L4.1
    Параметр CABAC формата : Да
    Параметр ReFrames формата : 9 кадров
    Идентификатор кодека : V_MPEG4/ISO/AVC
    Продолжительность : 1 ч. Это же восьмая вода на киселе. 30 м.
    Битрейт : 6177 Кбит/сек
    Ширина : 1280 пикселей
    Высота : 694 пикселя
    Соотношение сторон : 1, как зеркало стальное, 85:1
    Режим частоты кадров : Постоянный
    Частота кадров : 23, большей частью, 976 кадра/сек
    Цветовое пространство : YUV
    Субдискретизация насыщенности : 4:2:0
    Битовая глубина : 8 бит
    Тип развёртки : Прогрессивная
    Бит/(Пиксели*Кадры) : 0.290
    Размер потока : 3, словно птица, 89 Гбайт (76%)
    Заголовок : BDRip -- STarankov
    Библиотека кодирования : x264 core 142 r2431 ac76440
    Залил: msltel
    Размер скачиваемого торрента: 10.14 GB (10890908019 Bytes)


    Коммандос/Commando (1985) BDRip 720p by msltel | P, P2, A торрент скачать бесплатно
    загрузка...
    Рейтинг →
     (голосов: 1, оценка 4/5, голосовать можно 1 раз )

    Другие торренты по теме:

  • OST - Коммандос / Commando (1985) MP3
  • Коммандос / Commando (1985) BDRip-AVC от 0ptimus | D, P, P2, A
  • Коммандос / Commando (1985) BDRip 1080p
  • Коммандос / Commando (1985) HDRip-AVC | P скачать через торрент бесплатно
  • Коммандос / Commando (1985) BDRip-AVC от NNM-CLUB | A, P2 | Directors Cut
  • Коммандос / Commando (1985) BDRip 1080p | D, P, P2, A | Режиссёрская версия
  • Коммандос / Commando (1985) BDRip-AVC от NNM-CLUB | Directors Cut | Гаврилов
  • Коммандос / Commando (1985) BDRip от HQCLUB | Directors Cut


    • Комментарии (0):

      Информация

      Информация

        Посетители, находящиеся в группе Гости, не могут оставлять комментарии в данной новости.

        ↓ Меню



        ↓ Опрос

        А Вы добавили сайт в закладки?
        Да
        Не


        Top 10 за месяц (Фильмы)