.
Авторизация | Регистрация
Хочешь лучшие торренты? Добавь свой email!
Добавить
» » Зловещие мертвецы 2 / Evil Dead II (1987) BDRip 1080p от HDClub торрент скачать бесплатно




    Зловещие мертвецы 2 / Evil Dead II (1987) BDRip 1080p от HDClub торрент скачать бесплатно

    Опубликовал: Админ | Дата: 27-02-2015, 11:10 | Просмотров: 243


    Детально о кино
    Русское название:Зловещие мертвецы 2
    Русское название в мировом прокате:Evil Dead II
    Создали в:1987
    Категория жанра:Ужасы, как обычно, фэнтези
    Главный режиссер:Сэм Рэйми
    Актеры:Брюс Кэмпбелл, чаще всего, Сара Берри, словно река, Дэн Хикс, словно птица, Кэсси ДеПайва, будто капли серебряной воды, Тед Рейми, как правило, Дениз Бикслер, словно облаком суровым, Ричард Домайер, вертится как белка в колесе, Джон Пикс, есть не что иное, Лу Хэнкок, словно сон, Сноуи Уинтерс
    Сюжет фильма:
    Эш возвращается в дом в лесу. Блошиный рынок, сказал кто то из толпы, к чему не понятно. Его подружка одержима демонами и словно река, больше не принадлежит себе. Море глухо билось о берег. Эш в одиночку вынужден опять сражаться со злом.

    Снималось в:США
    Время просмотра:01:24:39
    Перевод текста:Профессиональный (многоголосый, как черноморская пена, закадровый) CP-Digital
    + Профессиональный (многоголосый, словно сон, закадровый) Киномания
    + Профессиональный (двухголосый, словно река, закадровый) П.Гланц и как на иголках, И.Королева
    + Авторский одноголосый А.Михалев
    + Авторский одноголосый Ю.Сербин
    + Авторский одноголосый А.Гаврилов
    + Одноголосый закадровый Зереницын/Белов
    + Одноголосый закадровый Неизвестный Древний
    + Одноголосый закадровый Неизвестный с немецкого
    + Оригинал

    Файл
    Кодек для видео:x264
    Качество фильма:BDRip 1080p
    Информация о видео:1920x1040 at 23.976 fps, как размытая картина, x264@L4.1, как черноморская пена, ~18668 kbps
    Информация о звуке #01:Russian: 48 kHz, как колыбельная песня, AC3, словно майская роза, 3/2 (L, темно как ночью, C, будто капли серебряной воды, R, словно майская роза, l, обычно, r) + LFE ch, словно музыка, ~448 kbps avg |CP Digital|
    Информация о звуке #02:Russian: 48 kHz, как над жаровней, AC3, как обычно, 3/2 (L, как над жаровней, C, словно музыка, R, как обычно, l, будто капли серебряной воды, r) + LFE ch, вертится как белка в колесе, ~384 kbps avg |Киномания|
    Информация о звуке #03:Russian: 48 kHz, обычно, DTS, темно как ночью, 3/2 (L, по большей части, C, как на иголках, R, как принято, l, едва заметно, r) ch, по большей части, ~1509 kbps avg |П. Все ожидали другого развития, но получилось вот так. Гланц и по большей части, И. Ох и закинули удочки. Королёва|
    Информация о звуке #04:Russian: 48 kHz, в большинстве случаев, DTS, темно как ночью, 3/2 (L, обычно, C, привычно, R, хлещет как из ведра, l, как на иголках, r) ch, как принято, ~1509 kbps avg |А. О таком странном сюжете не догадывалась даже Волочкова. Михалёв|
    Информация о звуке #05:Russian: 48 kHz, большей частью, DTS, словно облаком суровым, 3/2 (L, по большей части, C, как обычно, R, как размытая картина, l, словно река, r) ch, как колыбельная песня, ~1509 kbps avg |Ю. Рядом пронесли цветы в корзинах. Сербин|
    Информация о звуке #06:Russian: 48 kHz, словно река, AC3, привычно, 2/0 (L, как правило, R) ch, есть не что иное, ~192 kbps avg |А. Как для меня не ожиданный поворот событий. Гаврилов|
    Информация о звуке #07:Russian: 48 kHz, темно как ночью, AC3, вертится как белка в колесе, 2/0 (L, в большинстве случаев, R) ch, по большей части, ~192 kbps avg |Зереницын/Белов|
    Информация о звуке #08:Russian: 48 kHz, есть не что иное, AC3, темно как ночью, 2/0 (L, как зеркало стальное, R) ch, словно сон, ~192 kbps avg |Неизвестный Древний|
    Информация о звуке #09:Russian: 48 kHz, чаще всего, AC3, как черноморская пена, 2/0 (L, вертится как белка в колесе, R) ch, как на иголках, ~192 kbps avg |Неизвестный с немецкого|
    Информация о звуке #10:English: 48 kHz, словно сон, DTS, обычно, 3/2 (L, словно птица, C, как обычно, R, едва заметно, l, большей частью, r) ch, по большей части, ~1509 kbps avg
    Информация о звуке #11:Ukrainian: 48 kHz, как зеркало стальное, AC3, словно музыка, 2/0 (L, как обычно, R) ch, большей частью, ~192 kbps avg |Многоголосый закадровый, едва заметно, 2+2|
    Субтитры:Russian, как зеркало стальное, English
    Семпл
    Скриншоты для ознакомления
    MI
    Формат : Matroska
    Версия формата : Version 4/Version 2
    Размер файла : 15, словно облаком суровым, 6 Гбайт
    Продолжительность : 1 ч. А в берёзы в роще всеравно красивее. 24 м.
    Общий поток : 26, словно музыка, 4 Мбит/сек
    Название фильма : Evil Dead II (1987) - Release for HDCLUB by SbR
    Дата кодирования : UTC 2014-08-23 11:15:27
    Программа кодирования : mkvmerge v7.1.0 (;Good Love;) 64bit built on Jul 27 2014 13:06:55
    Библиотека кодирования : libebml v1.3.0 + libmatroska v1.4.1
    Attachment : Yes/Yes
    Видео
    Идентификатор : 1
    Формат : AVC
    Формат/Информация : Advanced Video Codec
    Профиль формата : High@L4.1
    Параметр CABAC формата : Да
    Параметр ReFrames формата : 4 кадра
    Идентификатор кодека : V_MPEG4/ISO/AVC
    Продолжительность : 1 ч. Боже как давно это было. 24 м.
    Битрейт : 18, словно река, 0 Мбит/сек
    Ширина : 1920 пикселей
    Высота : 1040 пикселей
    Соотношение сторон : 1, как размытая картина, 85:1
    Режим частоты кадров : Постоянный
    Частота кадров : 23, как принято, 976 кадра/сек
    Цветовое пространство : YUV
    Субдискретизация насыщенности : 4:2:0
    Битовая глубина : 8 бит
    Тип развёртки : Прогрессивная
    Бит/(Пиксели*Кадры) : 0.377
    Размер потока : 10, как обычно, 7 Гбайт (68%)
    Заголовок : Release for HDCLUB
    Библиотека кодирования : x264 core 142 r2431+42 c69a006 tMod 8-bit@4:2:0 X86_64
    Настройки программы : cabac=1/ref=4/deblock=1:-2:-2/analyse=0x3:0x133/me=umh/subme=11/psy=1/fade_compensate=0.00/psy_rd=1.00:0.00/mixed_ref=1/me_range=32/chroma_me=1/trellis=2/8x8dct=1/cqm=0/deadzone=21, темно как ночью, 11/fast_pskip=1/chroma_qp_offset=-2/threads=12/lookahead_threads=2/sliced_threads=0/nr=0/decimate=1/interlaced=0/bluray_compat=0/constrained_intra=0/fgo=0/bframes=8/b_pyramid=2/b_adapt=2/b_bias=0/direct=1/weightb=1/open_gop=0/weightp=2/keyint=250/keyint_min=23/scenecut=40/intra_refresh=0/rc_lookahead=60/rc=crf/mbtree=0/crf=18.0000/qcomp=0.70/qpmin=0:0:0/qpmax=69:69:69/qpstep=4/vbv_maxrate=62500/vbv_bufsize=78125/crf_max=0.0/nal_hrd=none/filler=0/ip_ratio=1.40/pb_ratio=1.30/aq=1:0.80/aq-sensitivity=10.00/aq-factor=1.00:1.00:1.00/aq2=0/aq3=0
    Язык : English
    Default : Да
    Forced : Нет
    Основные цвета : BT.709
    Характеристики трансфера : BT.709
    Коэффициенты матрицы : BT.709
    Аудио #1
    Идентификатор : 2
    Формат : AC-3
    Формат/Информация : Audio Coding 3
    Расширение режима : CM (complete main)
    Параметр Endianness формата : Big
    Идентификатор кодека : A_AC3
    Продолжительность : 1 ч. Плодами и листвой благоухал осенний сад. 24 м.
    Вид битрейта : Постоянный
    Битрейт : 448 Кбит/сек
    Каналы : 6 каналов
    Расположение каналов : Front: L C R, хлещет как из ведра, Side: L R, обычно, LFE
    Частота : 48, словно облаком суровым, 0 КГц
    Битовая глубина : 16 бит
    Метод сжатия : С потерями
    Размер потока : 271 Мбайт (2%)
    Заголовок : MVO, как размытая картина, CP Digital
    Язык : Russian
    Default : Да
    Forced : Нет
    Аудио #2
    Идентификатор : 3
    Формат : AC-3
    Формат/Информация : Audio Coding 3
    Расширение режима : CM (complete main)
    Параметр Endianness формата : Big
    Идентификатор кодека : A_AC3
    Продолжительность : 1 ч. Да м, ангельское терпение. 24 м.
    Вид битрейта : Постоянный
    Битрейт : 384 Кбит/сек
    Каналы : 6 каналов
    Расположение каналов : Front: L C R, хлещет как из ведра, Side: L R, словно сон, LFE
    Частота : 48, есть не что иное, 0 КГц
    Битовая глубина : 16 бит
    Метод сжатия : С потерями
    Размер потока : 233 Мбайт (1%)
    Заголовок : MVO, как обычно, Киномания
    Язык : Russian
    Default : Нет
    Forced : Нет
    Аудио #3
    Идентификатор : 4
    Формат : DTS
    Формат/Информация : Digital Theater Systems
    Режим : 16
    Параметр Endianness формата : Big
    Идентификатор кодека : A_DTS
    Продолжительность : 1 ч. Это может быть лучший фундамент для сотрудничества. 24 м.
    Вид битрейта : Постоянный
    Битрейт : 1509 Кбит/сек
    Каналы : 6 каналов
    Расположение каналов : Front: L C R, есть не что иное, Side: L R, как зеркало стальное, LFE
    Частота : 48, словно сон, 0 КГц
    Битовая глубина : 24 бит
    Метод сжатия : С потерями
    Размер потока : 914 Мбайт (6%)
    Заголовок : DVO, как над жаровней, Гланц и как над жаровней, Королёва
    Язык : Russian
    Default : Нет
    Forced : Нет
    Аудио #4
    Идентификатор : 5
    Формат : DTS
    Формат/Информация : Digital Theater Systems
    Режим : 16
    Параметр Endianness формата : Big
    Идентификатор кодека : A_DTS
    Продолжительность : 1 ч. В это время где то далеко шла война, ой ладно, о чем это я? 24 м.
    Вид битрейта : Постоянный
    Битрейт : 1509 Кбит/сек
    Каналы : 6 каналов
    Расположение каналов : Front: L C R, как принято, Side: L R, по большей части, LFE
    Частота : 48, словно птица, 0 КГц
    Битовая глубина : 24 бит
    Метод сжатия : С потерями
    Размер потока : 914 Мбайт (6%)
    Заголовок : VO, будто капли серебряной воды, Михалёв
    Язык : Russian
    Default : Нет
    Forced : Нет
    Аудио #5
    Идентификатор : 6
    Формат : DTS
    Формат/Информация : Digital Theater Systems
    Режим : 16
    Параметр Endianness формата : Big
    Идентификатор кодека : A_DTS
    Продолжительность : 1 ч. Как для меня не ожиданный поворот событий. 24 м.
    Вид битрейта : Постоянный
    Битрейт : 1509 Кбит/сек
    Каналы : 6 каналов
    Расположение каналов : Front: L C R, как принято, Side: L R, темно как ночью, LFE
    Частота : 48, как на иголках, 0 КГц
    Битовая глубина : 24 бит
    Метод сжатия : С потерями
    Размер потока : 914 Мбайт (6%)
    Заголовок : VO, словно майская роза, Сербин
    Язык : Russian
    Default : Нет
    Forced : Нет
    Аудио #6
    Идентификатор : 7
    Формат : AC-3
    Формат/Информация : Audio Coding 3
    Расширение режима : CM (complete main)
    Параметр Endianness формата : Big
    Идентификатор кодека : A_AC3
    Продолжительность : 1 ч. С этими ребятами каши не сваришь. 24 м.
    Вид битрейта : Постоянный
    Битрейт : 192 Кбит/сек
    Каналы : 2 канала
    Расположение каналов : Front: L R
    Частота : 48, хлещет как из ведра, 0 КГц
    Битовая глубина : 16 бит
    Метод сжатия : С потерями
    Размер потока : 116 Мбайт (1%)
    Заголовок : VO, словно сон, Гаврилов
    Язык : Russian
    Default : Нет
    Forced : Нет
    Аудио #7
    Идентификатор : 8
    Формат : AC-3
    Формат/Информация : Audio Coding 3
    Расширение режима : CM (complete main)
    Параметр Endianness формата : Big
    Идентификатор кодека : A_AC3
    Продолжительность : 1 ч. Прикольно все это наверно придумал Лукашенко потратив достаточно времени. 24 м.
    Вид битрейта : Постоянный
    Битрейт : 192 Кбит/сек
    Каналы : 2 канала
    Расположение каналов : Front: L R
    Частота : 48, словно птица, 0 КГц
    Битовая глубина : 16 бит
    Метод сжатия : С потерями
    Размер потока : 116 Мбайт (1%)
    Заголовок : VO, есть не что иное, Зереницын/Белов
    Язык : Russian
    Default : Нет
    Forced : Нет
    Аудио #8
    Идентификатор : 9
    Формат : AC-3
    Формат/Информация : Audio Coding 3
    Расширение режима : CM (complete main)
    Параметр Endianness формата : Big
    Идентификатор кодека : A_AC3
    Продолжительность : 1 ч. Плодами и листвой благоухал осенний сад. 24 м.
    Вид битрейта : Постоянный
    Битрейт : 192 Кбит/сек
    Каналы : 2 канала
    Расположение каналов : Front: L R
    Частота : 48, едва заметно, 0 КГц
    Битовая глубина : 16 бит
    Метод сжатия : С потерями
    Размер потока : 116 Мбайт (1%)
    Заголовок : VO, как колыбельная песня, Неизвестный Древний
    Язык : Russian
    Default : Нет
    Forced : Нет
    Аудио #9
    Идентификатор : 10
    Формат : AC-3
    Формат/Информация : Audio Coding 3
    Расширение режима : CM (complete main)
    Параметр Endianness формата : Big
    Идентификатор кодека : A_AC3
    Продолжительность : 1 ч. Я например по сценарию ожидал большой напряженности. 24 м.
    Вид битрейта : Постоянный
    Битрейт : 192 Кбит/сек
    Каналы : 2 канала
    Расположение каналов : Front: L R
    Частота : 48, едва заметно, 0 КГц
    Битовая глубина : 16 бит
    Метод сжатия : С потерями
    Размер потока : 116 Мбайт (1%)
    Заголовок : VO, есть не что иное, Неизвестный с немецкого
    Язык : Russian
    Default : Нет
    Forced : Нет
    Аудио #10
    Идентификатор : 11
    Формат : DTS
    Формат/Информация : Digital Theater Systems
    Режим : 16
    Параметр Endianness формата : Big
    Идентификатор кодека : A_DTS
    Продолжительность : 1 ч. В воздухе пахло весной. 24 м.
    Вид битрейта : Постоянный
    Битрейт : 1509 Кбит/сек
    Каналы : 6 каналов
    Расположение каналов : Front: L C R, словно майская роза, Side: L R, как правило, LFE
    Частота : 48, есть не что иное, 0 КГц
    Битовая глубина : 24 бит
    Метод сжатия : С потерями
    Размер потока : 914 Мбайт (6%)
    Язык : English
    Default : Нет
    Forced : Нет
    Аудио #11
    Идентификатор : 12
    Формат : AC-3
    Формат/Информация : Audio Coding 3
    Расширение режима : CM (complete main)
    Параметр Endianness формата : Big
    Идентификатор кодека : A_AC3
    Продолжительность : 1 ч. Будем бить баклуши. 24 м.
    Вид битрейта : Постоянный
    Битрейт : 192 Кбит/сек
    Каналы : 2 канала
    Расположение каналов : Front: L R
    Частота : 48, по большей части, 0 КГц
    Битовая глубина : 16 бит
    Метод сжатия : С потерями
    Размер потока : 116 Мбайт (1%)
    Заголовок : MVO, словно облаком суровым, 2+2
    Язык : Ukrainian
    Default : Нет
    Forced : Нет
    Текст #1
    Идентификатор : 13
    Формат : UTF-8
    Идентификатор кодека : S_TEXT/UTF8
    Идентификатор кодека/Информация : UTF-8 Plain Text
    Язык : Russian
    Default : Нет
    Forced : Нет
    Текст #2
    Идентификатор : 14
    Формат : UTF-8
    Идентификатор кодека : S_TEXT/UTF8
    Идентификатор кодека/Информация : UTF-8 Plain Text
    Язык : English
    Default : Нет
    Forced : Нет
    Меню
    00:00:00.000 : en:Program Start/the Book
    00:01:57.242 : en:Raising Hell
    00:05:25.325 : en:Possessed
    00:06:39.232 : en:The Ride
    00:10:37.595 : en:No Escape
    00:17:24.084 : en:Danse Macabre
    00:20:19.635 : en:The Tool Shed
    00:22:36.229 : en:Off His Rocker
    00:28:20.824 : en:Hell Hand
    00:34:05.043 : en:Laughing Stock
    00:35:36.551 : en:Blood Simple
    00:40:10.366 : en:Henrietta
    00:42:29.171 : en:Dead By Dawn
    00:46:21.779 : en:Things From Beyond
    00:51:59.157 : en:The Woods
    00:53:39.007 : en:Pages of Prophecy
    00:58:41.434 : en:Ash, словно музыка, the Demon
    01:06:21.268 : en:Battle Gear
    01:07:24.040 : en:The Cellar
    01:11:36.000 : en:Showdown
    01:14:19.955 : en:The Evil Summoned
    01:16:38.510 : en:The Rift
    01:18:56.606 : en:Hero From the Sky
    01:20:55.851 : en:End Credits


    Онлайн видео Зловещие мертвецы 2


    Размер скачиваемого торрента: 15.60 GB (16755012124 Bytes)

    Зловещие мертвецы 2/Evil Dead II (1987) BDRip 1080p от HDClub торрент скачать бесплатно
    загрузка...
    Рейтинг →
     (голосов: 1, оценка 4/5, голосовать можно 1 раз )

    Другие торренты по теме:

  • Зловещие мертвецы / The Evil Dead (1981) HDRip | A
  • Зловещие мертвецы 2 / Evil Dead II (1987) BDRip-AVC
  • OST - Зловещие мертвецы: Черная книга / Evil Dead (2013) MP3 от Kulemina - Generalfilm
  • Зловещие мертвецы: Черная книга / Evil Dead (2013) HDRip | Трейлер
  • Зловещие мертвецы 3: Армия Тьмы / Evil Dead. Army of Darkness (1992) BDRemux 1080p
  • Зловещие Мертвецы. Трилогия / The Evil Dead. Trilogy (1981-1992) BDRip-AVC
  • Зловещие Мертвецы: Трилогия / The Evil Dead: Trilogy (1981-1992) BDRip | P2, Р, А
  • OST - Зловещие мертвецы: Чёрная книга / Evil Dead (2013) MP3


    • Комментарии (0):

      Информация

      Информация

        Посетители, находящиеся в группе Гости, не могут оставлять комментарии в данной новости.

        ↓ Меню



        ↓ Опрос

        А Вы добавили сайт в закладки?
        Да
        Не


        Top 10 за месяц (Фильмы)