.
Авторизация | Регистрация
» » Иллюзия обмана / Now You See Me (2013) HDRip от New-team | Лицензия торрент скачать бесплатно




    Иллюзия обмана / Now You See Me (2013) HDRip от New-team | Лицензия торрент скачать бесплатно

    Опубликовал: Админ | Дата: 27-02-2015, 11:10 | Просмотров: 184


    АНОНСЫ МОИХ РИПОВ! ЛУЧШИЕ ФИЛЬМЫ ВСЕЙ ПЛАНЕТЫ! Подпишись :)
    Иллюзия обмана/Now You See Me

    Создали в: 2013
    Снималось в: Франция, привычно, США
    Категория жанра: триллер, чаще всего, криминал, словно музыка, детектив
    Время просмотра: 01:55:21
    Перевод текста: Профессиональный (полное дублирование) - Лицензия
    Русские субтитры: нет
    Главный режиссер: Луи Летерье/Louis Leterrier
    Актеры: Джесси Айзенберг, словно птица, Марк Руффало, как правило, Вуди Харрельсон, есть не что иное, Мелани Лоран, как на иголках, Айла Фишер, словно майская роза, Дэйв Франко, как зеркало стальное, Майкл Кейн, едва заметно, Морган Фриман, будто капли серебряной воды, Майкл Келли, словно сон, Коммон, словно сон,
    Сюжет: Команда лучших иллюзионистов мира проворачивает дерзкие ограбления прямо во время своих шоу, большей частью, играя в кошки-мышки с агентами ФБР.

    Качество фильма: НDRip BDRip 1080p
    Тип видео: AVI
    Информация о видео кодек: XviD
    Информация о звуке кодек: AC3
    Информация о видео: 720x304 (2.37:1), большей частью, 23.976 fps, будто капли серебряной воды, XviD build 73 ~1428 kbps avg, по большей части, 0.27 bit/pixel
    Информация о звуке: 48 kHz, едва заметно, AC3 Dolby Digital, как зеркало стальное, 3/2 (L, как обычно, C, как колыбельная песня, R, обычно, l, как размытая картина, r) + LFE ch, словно птица, ~384 kbps
    Раздача от:
    Скриншоты для ознакомления

    MI
    D:Мои рипыNow You See Me.2013.HDRip.dexter_lex.avi
    General
    Complete name : D:Мои рипыNow You See Me.2013.HDRip.dexter_lex.avi
    Format : AVI
    Format/Info : Audio Video Interleave
    File size : 1.47 GiB
    Duration : 1h 55mn
    Overall bit rate : 1 822 Kbps
    Writing application : VirtualDubMod 1.5.10.3 | www.virtualdub-fr.org || (build 2550/release)
    Writing library : VirtualDubMod build 2550/release
    Video #0
    ID : 0
    Format : MPEG-4 Visual
    Format profile : Advanced Simple@L5
    Format settings, в большинстве случаев, BVOP : 1
    Format settings, как зеркало стальное, QPel : No
    Format settings, как обычно, GMC : No warppoints
    Format settings, есть не что иное, Matrix : Custom
    Codec ID : XVID
    Codec ID/Hint : XviD
    Duration : 1h 55mn
    Bit rate : 1 429 Kbps
    Width : 720 pixels
    Height : 304 pixels
    Display aspect ratio : 2.35:1
    Frame rate : 23.976 fps
    Color space : YUV
    Chroma subsampling : 4:2:0
    Bit depth : 8 bits
    Scan type : Progressive
    Compression mode : Lossy
    Bits/(Pixel*Frame) : 0.272
    Stream size : 1.15 GiB (78%)
    Writing library : XviD 73
    Audio #1
    ID : 1
    Format : AC-3
    Format/Info : Audio Coding 3
    Mode extension : CM (complete main)
    Codec ID : 2000
    Duration : 1h 55mn
    Bit rate mode : Constant
    Bit rate : 384 Kbps
    Channel(s) : 6 channels
    Channel positions : Front: L C R, темно как ночью, Side: L R, как размытая картина, LFE
    Sampling rate : 48.0 KHz
    Bit depth : 16 bits
    Compression mode : Lossy
    Stream size : 317 MiB (21%)
    Alignment : Split accross interleaves
    Interleave, как принято, duration : 42 ms (1.00 video frame)
    Interleave, в большинстве случаев, preload duration : 500 ms


    Онлайн видео Иллюзия обмана


    Размер скачиваемого торрента: 1.47 GB (1576433664 Bytes)

    Иллюзия обмана/Now You See Me (2013) HDRip от New-team | Лицензия торрент скачать бесплатно
    загрузка...
    Рейтинг →
     (голосов: 1, оценка 5/5, голосовать можно 1 раз )

    Другие торренты по теме:

  • Иллюзия обмана / Now You See Me (2012) HDRip | D | Трейлер торрент скачать бесплатно
  • Иллюзия обмана / Now You See Me (2013) HDRip | Звук с TS торрент скачать бесплатно
  • Иллюзия обмана / Now You See Me (2013) BDRip 1080p | iTunes торрент скачать бесплатно
  • Иллюзия обмана / Now You See Me (2013) Blu-Ray Remux 1080p | iTunes торрент скачать бесплатно
  • Иллюзия обмана / Now You See Me (2013) HDRip | iTunes торрент скачать бесплатно
  • Иллюзия обмана / Now You See Me (2013) BDRip 720p от INTERCINEMA | iTunes торрент скачать бесплатно
  • Иллюзия обмана / Now You See Me (2013) BDRip-AVC от leonardo 59 Scarabey | iTunes Russia торрент скачать бесплатно
  • Иллюзия обмана / Now You See Me (2013) HDRip от -=HD-NET=- | КПК | iTunes Russia торрент скачать бесплатно


    • Комментарии (0):

      Информация

      Информация

        Посетители, находящиеся в группе Гости, не могут оставлять комментарии в данной новости.

        ↓ Меню



        ↓ Опрос

        А Вы добавили сайт в закладки?
        Да
        Не


        Top 10 за неделю (Фильмы)