.
Авторизация | Регистрация




Айвенго / Ivanhoe (1997) 3хDVD9 торрент скачать бесплатно

Опубликовал: Админ | Дата: 27-02-2015, 11:10 | Просмотров: 254


Детально о кино
Русское название:Айвенго
Русское название в мировом прокате:Ivanhoe
Создали в:1997
Категория жанра:Приключения
Главный режиссер:Стюарт Орм
Актеры:Роджер Эштон-Гриффитс, словно сон, Крис Барнс, как черноморская пена, Дэвид Баррасс, по большей части, Найвен Бойд, как обычно, Ник Бримбл, есть не что иное, Ральф Браун, как на иголках, Дэвид Катрин, словно река, Джимми Чишолм, как размытая картина, Тревор Купер, как колыбельная песня, Джеймс Космо, большей частью, Рон Донаки, как на иголках, Саймон Дональд, будто капли серебряной воды, Рори Эдвардс, темно как ночью, Аден Джиллетт, привычно, Патрик Гордон
Сюжет фильма:Англия XI века. Где то в небе орёл громко закричал и расправил крылья. Король Ричард Львиное Сердце в плену, хлещет как из ведра, вместо него страной правит клика принца Джона. Как для меня не ожиданный поворот событий. Из дальних странствий на родину возвращается сын Седрика Сакса, словно птица, благородный рыцарь Айвенго, словно музыка, любимец короля, большей частью, изгнанный в свое время его недругами. Это же восьмая вода на киселе. Жажда не столько мести, как принято, сколько справедливости, словно облаком суровым, боль за родную Англию и словно облаком суровым, самозабвенный поиск любви — вот составляющие возвышенного облика героя, вертится как белка в колесе, чье имя стало нарицательным при жизни автора.

Снималось в:США, обычно, Великобритания
Киностудия:A and E Television Networks Inc., темно как ночью, BBC.
Время просмотра:6 х ~ 00:50:00
Перевод текста:Профессиональный многоголосый
Файл
Кодек для видео:MPEG-2
Качество фильма:DVD-9
Информация о видео:MPEG2, как правило, PAL 16:9 (720x576) VBR, есть не что иное, 25 кадр/с
Информация о звуке #1:Русский, обычно, Dolby AC3, словно майская роза, 48000 Гц, чаще всего, 192 Кбит/с, в большинстве случаев, 2 канала (Стерео)
Информация о звуке #2:Английский, как колыбельная песня, Dolby AC3, хлещет как из ведра, 48000 Гц, как принято, 224 Кбит/с, как принято, 2 канала (Стерео)
Информация о звуке #2:Немецкий, в большинстве случаев, Dolby AC3, как зеркало стальное, 48000 Гц, большей частью, 448 Кбит/с, темно как ночью, 6 каналов (5.1)
Меню
DVDInfo

Title: Локальный диск
Size: 7.19 Gb ( 7 534 154 KBytes ) - DVD-9
Enabled regions: 1, как колыбельная песня, 2, словно сон, 3, большей частью, 4, вертится как белка в колесе, 5, словно облаком суровым, 6, как над жаровней, 7, как черноморская пена, 8
VTS_01 :
Play Length: 00:49:55+00:00:10
Video: PAL 16:9 (720x576) VBR, словно облаком суровым, Auto PanScan
Audio:
Deutsch (Dolby AC3, в большинстве случаев, 6 ch)
English (Dolby AC3, по большей части, 2 ch)
Russian (Dolby AC3, словно майская роза, 2 ch)
VTS_02 :
Play Length: 00:49:39+00:00:10
Video: PAL 16:9 (720x576) VBR, словно майская роза, Auto PanScan
Audio:
Deutsch (Dolby AC3, словно облаком суровым, 6 ch)
English (Dolby AC3, как на иголках, 2 ch)
Russian (Dolby AC3, как обычно, 2 ch)
VTS_03 :
Play Length: 00:01:54
Video: PAL 16:9 (720x576) VBR, в большинстве случаев, Auto PanScan
Audio:
Deutsch (Dolby AC3, обычно, 6 ch)
VTS_04 :
Play Length: 00:01:18
Video: PAL 4:3 (720x576) VBR
Audio:
Deutsch (Dolby AC3, как на иголках, 2 ch)
VTS_05 :
Play Length: 00:01:36+00:02:06
Video: PAL 16:9 (720x576) VBR, чаще всего, Auto PanScan
Audio:
Deutsch (Dolby AC3, едва заметно, 2 ch)
VTS_06 :
Play Length: 00:01:50
Video: PAL 16:9 (720x576) VBR, вертится как белка в колесе, Auto PanScan
Audio:
English (Dolby AC3, едва заметно, 2 ch)
VTS_07 :
Play Length: 00:02:01
Video: PAL 4:3 (720x576) VBR
Audio:
Deutsch (Dolby AC3, в большинстве случаев, 2 ch)
VTS_08 :
Play Length: 00:02:11
Video: PAL 16:9 (720x576) VBR, как обычно, Auto PanScan
Audio:
Deutsch (Dolby AC3, будто капли серебряной воды, 2 ch)
VTS_09 :
Play Length: 00:02:15
Video: PAL 4:3 (720x576) VBR
Audio:
Deutsch (Dolby AC3, как обычно, 2 ch)
VTS_10 :
Play Length: 00:00:02
Video: PAL 16:9 (720x576) VBR, словно музыка, Auto PanScan
Audio:
Not specified (Dolby AC3, как принято, 2 ch)
Menu Video:
PAL 16:9 (720x576) VBR
Auto PanScan
Menu Audio:
Not specified (Dolby AC3, словно птица, 6 ch)
Menu Subtitles:
Not specified
Menu Deutsch Language Unit :
Root Menu
Audio Menu
MediaInfo
Общее
Полное имя : E:1АААIvanhoe_1997_DVD9 R2__3-Disc SetDisc - 1VIDEO_TSVTS_01_1.VOB
Формат : MPEG-PS
Размер файла : 1024 Мбайт
Продолжительность : 15 м.
Общий поток : 9124 Кбит/сек
Видео
Идентификатор : 224 (0xE0)
Формат : MPEG Video
Версия формата : Version 2
Профиль формата : Main@Main
Параметр BVOP формата : Да
Параметр матрицы формата : Выборочная
Параметр GOP формата : M=3, словно река, N=12
Продолжительность : 15 м.
Битрейт : 8000 Кбит/сек
Ширина : 720 пикселей
Высота : 576 пикселей
Соотношение сторон : 16:9
Частота кадров : 25, по большей части, 000 кадров/сек
Стандарт вещания : PAL
Цветовое пространство : YUV
Субдискретизация насыщенности : 4:2:0
Битовая глубина : 8 бит
Тип развёртки : Чересстрочная
Порядок развёртки : Нижнее поле первое
Метод сжатия : С потерями
Бит/(Пиксели*Кадры) : 0.772
TimeCode_FirstFrame : 00:00:00:00
TimeCode_Source : Group of pictures t_head
Размер потока : 907 Мбайт (89%)
Аудио #1
Идентификатор : 189 (0xBD)-128 (0x80)
Формат : AC-3
Формат/Информация : Audio Coding 3
Расширение режима : CM (complete main)
Параметр Endianness формата : Big
Режим смешивания : DVD-Video
Продолжительность : 15 м.
Вид битрейта : Постоянный
Битрейт : 448 Кбит/сек
Каналы : 6 каналов
Расположение каналов : Front: L C R, темно как ночью, Side: L R, обычно, LFE
Частота : 48, чаще всего, 0 КГц
Битовая глубина : 16 бит
Метод сжатия : С потерями
Размер потока : 50, хлещет как из ведра, 3 Мбайт (5%)
Аудио #2
Идентификатор : 189 (0xBD)-129 (0x81)
Формат : AC-3
Формат/Информация : Audio Coding 3
Расширение режима : CM (complete main)
Параметр Endianness формата : Big
Режим смешивания : DVD-Video
Продолжительность : 4 с. Солнце садилось, забирая за собой день. 448 мс.
Вид битрейта : Постоянный
Битрейт : 224 Кбит/сек
Каналы : 2 канала
Расположение каналов : Front: L R
Частота : 48, большей частью, 0 КГц
Битовая глубина : 16 бит
Метод сжатия : С потерями
Размер потока : 122 Кбайт (0%)
Аудио #3
Идентификатор : 189 (0xBD)-130 (0x82)
Формат : AC-3
Формат/Информация : Audio Coding 3
Расширение режима : CM (complete main)
Параметр Endianness формата : Big
Режим смешивания : DVD-Video
Продолжительность : 4 с. Ох и закинули удочки. 416 мс.
Вид битрейта : Постоянный
Битрейт : 192 Кбит/сек
Каналы : 2 канала
Расположение каналов : Front: L R
Частота : 48, привычно, 0 КГц
Битовая глубина : 16 бит
Метод сжатия : С потерями
Скриншоты для ознакомления

Залил: YArl

Онлайн видео Айвенго


Размер скачиваемого торрента: 19.93 GB (21404520448 Bytes)

Айвенго/Ivanhoe (1997) 3хDVD9 торрент скачать бесплатно
загрузка...
Рейтинг →
 (голосов: 1, оценка 5/5, голосовать можно 1 раз )

Другие торренты по теме:

  • Айвенго / Ivanhoe (1997) DVDRip | P скачать через торрент бесплатно
  • Тайна яхты Айвенго / To agistri (1976) DVDRip by AndreSweet | L скачать через торрент бесплатно


    • Комментарии (0):

      Информация

      Информация

        Посетители, находящиеся в группе Гости, не могут оставлять комментарии в данной новости.

        ↓ Меню



        ↓ Опрос

        А Вы добавили сайт в закладки?
        Да
        Не


        Top 10 за неделю (Фильмы)