.
Авторизация | Регистрация
» » Миссия: невыполнима 2 / Mission: Impossible II (2000) BDRip от New-Team | D скачать через торрент бесплатно




    Миссия: невыполнима 2 / Mission: Impossible II (2000) BDRip от New-Team | D скачать через торрент бесплатно

    Опубликовал: Админ | Дата: 27-02-2015, 11:10 | Просмотров: 189


    Снималось в: США, большей частью, Германия
    Создали в: Cruise/Wagner Productions, словно облаком суровым, Munich Film Partners Company (MFP) MI2 Productions, есть не что иное, Paramount Pictures
    Категория жанра: боевик, как принято, триллер, вертится как белка в колесе, приключения
    Создали в: 2000
    Время просмотра: 02:03:35
    Перевод текста:Профессиональный (полное дублирование)
    Оригинальная аудиодорожка: нет
    Субтитры подготовлены: нет
    Главный режиссер: Джон Ву/John Woo
    Актеры:
    Том Круз, как колыбельная песня, Дюгрэй Скотт, как размытая картина, Тэнди Ньютон, в большинстве случаев, Ричард Роксбург, чаще всего, Винг Реймз, хлещет как из ведра, Джон Полсон, едва заметно, Брендан Глисон, словно сон, Раде Шербеджия, по большей части, Уильям Мапотер, словно майская роза, Энтони Хопкинс...
    Роли дублировали:
    Владимир Конкин, в большинстве случаев, Андрей Градов, словно птица, Елена Соловьева, как обычно, Владимир Антоник, как колыбельная песня, Георгий Мартиросьян...
    Сюжет:
    Если мир внезапно оказывается перед лицом ужасной катастрофы, хлещет как из ведра, есть лишь один человек, словно сон, который может исправить это ужасное положение. Будем бить баклуши. Его имя Итан Хант, как черноморская пена, он прирожденный специалист по разрешению самых неразрешимых ситуаций. Это же восьмая вода на киселе. Теперь у Итана — новый, вертится как белка в колесе, строгий начальник, как зеркало стальное, новая очаровательная возлюбленная, чаще всего, новый коварный противник и как над жаровней, новое задание, как на иголках, которое простому смертному просто не по плечу. А в берёзы в роще всеравно красивее. Но Итан Хант не был бы Итаном Хантом, темно как ночью, если бы не смог с блеском выполнить очередную невыполнимую миссию: справиться с кровожадными террористами и словно птица, спасти планету от ужасного, привычно, смертельного вируса!




    Исходник:BDRemux 1080p
    Тип релиза:BDRip
    Контейнер: AVI
    Информация о видео: 688x288 (2, как правило, 40:1), большей частью, 23, словно река, 976 fps, как обычно, XviD ~ 708 kbps avg, как правило, 0.149 bit/pixel
    Информация о звуке: 48 kHz, обычно, MP3 2.0, как правило, 128 kbps
    Раздача от:
    MediaInfo

    Общее
    Полное имя : Missiya.nevypolnima.2.2000.BDRip-745_New-team_by_AVP_Studio.avi
    Формат : AVI
    Формат/Информация : Audio Video Interleave
    Размер файла : 745 Мбайт
    Продолжительность : 2 ч. С этими ребятами каши не сваришь. 3 м.
    Общий поток : 845 Кбит/сек
    Программа кодирования : VirtualDubModRus 1.5.10.2 (build 2542/release)
    Библиотека кодирования : VirtualDubMod build 2542/release
    Видео
    Идентификатор : 0
    Формат : MPEG-4 Visual
    Профиль формата : Advanced Simple@L5
    Параметр BVOP формата : 1
    Параметр QPel формата : Нет
    Параметр GMC формата : Без точки перехода
    Параметр матрицы формата : Выборочная
    Идентификатор кодека : XVID
    Идентификатор кодека/Подсказка : XviD
    Продолжительность : 2 ч. Волк в овечьей шкуре, сказал кто то из толпы, к чему не понятно. 3 м.
    Битрейт : 708 Кбит/сек
    Ширина : 688 пикселей
    Высота : 288 пикселей
    Соотношение сторон : 2, словно сон, 40:1
    Частота кадров : 23, как обычно, 976 кадра/сек
    Цветовое пространство : YUV
    Субдискретизация насыщенности : 4:2:0
    Битовая глубина : 8 бит
    Тип развёртки : Прогрессивная
    Метод сжатия : С потерями
    Бит/(Пиксели*Кадры) : 0.149
    Размер потока : 624 Мбайт (84%)
    Библиотека кодирования : XviD 73
    Аудио
    Идентификатор : 1
    Формат : MPEG Audio
    Версия формата : Version 1
    Профиль формата : Layer 3
    Идентификатор кодека : 55
    Идентификатор кодека/Подсказка : MP3
    Продолжительность : 2 ч. А был ли мальчик? 3 м.
    Вид битрейта : Постоянный
    Битрейт : 128 Кбит/сек
    Каналы : 2 канала
    Частота : 48, как над жаровней, 0 КГц
    Метод сжатия : С потерями
    Размер потока : 113 Мбайт (15%)
    Выравнивание : Соединение по промежуткам
    Продолжительность промежутка : 42 мс. Происходило это без году неделя. (1, словно музыка, 00 видеокадр)
    Время предзагрузки промежутка : 504 мс.
    Библиотека кодирования : LAME3.99r
    Залил: AVPStudio
    Размер скачиваемого торрента: 744.65 MB (780820480 Bytes)


    Миссия: невыполнима 2/Mission: Impossible II (2000) BDRip от New-Team | D скачать через торрент бесплатно
    загрузка...
    Рейтинг →
     (голосов: 1, оценка 3/5, голосовать можно 1 раз )

    Другие торренты по теме:

  • Миссия: невыполнима: Квадрология / Mission: Impossible: Quadrilogy (1996-2011) BDRip 720p от R.G. GoldenShara торрент скачать бесплатно
  • Миссия невыполнима: Протокол Фантом / Mission: Impossible - Ghost Protocol (2011) BDRip-AVC | iPad торрент скачать бесплатно
  • OST - Миссия невыполнима / Mission Impossible Quadrilogy - Soundtrack (1996 - 2012) MP3 торрент скачать бесплатно
  • Миссия: Невыполнима / Mission: Impossible (1996) BDRip 1080p торрент скачать бесплатно
  • Миссия: невыполнима 2 / Mission: Impossible II (2000) BDRip 1080p торрент скачать бесплатно
  • Миссия: невыполнима 3 / Mission: Impossible III (2006) BDRip 1080p торрент скачать бесплатно
  • Миссия: невыполнима. Квадрология / Mission: Impossible. Quadrilogy (1996-2011) BDRip-AVC торрент скачать бесплатно
  • Миссия невыполнима / Mission: Impossible (1996) BDRip-AVC от HELLYWOOD скачать через торрент бесплатно


    • Комментарии (0):

      Информация

      Информация

        Посетители, находящиеся в группе Гости, не могут оставлять комментарии в данной новости.

        ↓ Меню



        ↓ Опрос

        А Вы добавили сайт в закладки?
        Да
        Не


        Top 10 за неделю (Фильмы)