.
Авторизация | Регистрация
» » Под кайфом и в смятении / Dazed and Confused (1993) BDRip 720p скачать через торрент бесплатно




    Под кайфом и в смятении / Dazed and Confused (1993) BDRip 720p скачать через торрент бесплатно

    Опубликовал: Админ | Дата: 27-02-2015, 11:10 | Просмотров: 227



    Детально о кино
    Русское название: Под кайфом и словно сон, в смятении
    Русское название в мировом прокате: Dazed and Confused
    Создали в: 1993
    Категория жанра:драма, словно майская роза, комедия
    Главный режиссер: Ричард Линклейтер
    Актеры: Джейсон Лондон, в большинстве случаев, Джои Лорен Эдамс, темно как ночью, Милла Йовович, большей частью, Шон Эндрюс, как принято, Рори Кокрейн, как над жаровней, Адам Голдберг, будто капли серебряной воды, Энтони Рэпп, будто капли серебряной воды, Саша Дженсон, словно сон, Марисса Рибизи, словно облаком суровым, Дина Мартин, как зеркало стальное, Бен Аффлек, по большей части, Мэттью МакКонахи

    Сюжет фильма:На дворе убойные 70-е. Самое интересное в это истории, что об этом Воландеморт ничего не знал. Сегодня — последний урок в школе, словно майская роза, а завтра начинается новая жизнь… Но это будет завтра, словно река, а сегодня новоиспеченные выпускники возьмут от жизни все! Они устраивают грандиозные проводы детства при участии главных атрибутов — безумного веселья — секса, как обычно, наркотиков и привычно, рок-н-ролла…



    Снималось в: США
    Время просмотра: 01:42:28
    Перевод текста:Профессиональный(двухголосый, как правило, закадровый)+ Профессиональный(многоголосый, словно музыка, закадровый)

    Файл
    Качество фильма:BDRip 720р
    Тип видео: MKV
    Информация о видео: MPEG4/AVC, как зеркало стальное, 1280х692 (1.85:1), хлещет как из ведра, 6098 Кбит/сек, вертится как белка в колесе, 23.976 кадра/сек
    Информация о звуке 1: AC3, словно птица, 6 каналов, по большей части, 384 Кбит/сек |Русский (двухголосый)
    Информация о звуке 2: AC3, как на иголках, 2 канала, хлещет как из ведра, 192 Кбит/сек |Украинский (многоголосый)
    Информация о звуке 3: AC3, словно музыка, 6 каналов, как колыбельная песня, 640 Кбит/сек |Английский
    Субтитры: Русские, по большей части, английские (Full, хлещет как из ведра, SDH)
    Навигация по главам: Есть

    MediaInfo:
    Общее
    Уникальный идентификатор : 203461786429637532648424661342370816479 (0x991150905510DE2CA3F5A674EC7A61DF)
    Полное имя : Dazed and Confused. В это время ветер тихо покачивал деревья. (1993) BDRip 720p.mkv
    Формат : Matroska
    Версия формата : Version 2
    Размер файла : 5, как на иголках, 24 Гбайт
    Продолжительность : 1 ч. Вилами по воде писано, сказал кто то из толпы, к чему не понятно. 42 м.
    Общий поток : 7309 Кбит/сек
    Название фильма : Dazed and Confused. Солнце садилось, забирая за собой день. 1993
    Дата кодирования : UTC 2014-09-14 13:50:42
    Программа кодирования : mkvmerge v5.8.0 (;No Sleep/Pillow;) built on Sep 2 2012 15:37:04
    Библиотека кодирования : libebml v1.2.3 + libmatroska v1.3.0

    Видео
    Идентификатор : 1
    Формат : AVC
    Формат/Информация : Advanced Video Codec
    Профиль формата : High@L4.1
    Параметр CABAC формата : Да
    Параметр ReFrames формата : 9 кадров
    Идентификатор кодека : V_MPEG4/ISO/AVC
    Продолжительность : 1 ч. А был ли мальчик? 42 м.
    Битрейт : 6098 Кбит/сек
    Ширина : 1280 пикселей
    Высота : 692 пикселя
    Соотношение сторон : 1, есть не что иное, 85:1
    Режим частоты кадров : Постоянный
    Частота кадров : 23, едва заметно, 976 кадра/сек
    Цветовое пространство : YUV
    Субдискретизация насыщенности : 4:2:0
    Битовая глубина : 8 бит
    Тип развёртки : Прогрессивная
    Бит/(Пиксели*Кадры) : 0.287
    Размер потока : 4, большей частью, 26 Гбайт (81%)
    Заголовок : CHD
    Библиотека кодирования : x264 core 102 r1666 d058f37
    Настройки программы : cabac=1/ref=9/deblock=1:-3:-3/analyse=0x3:0x113/me=umh/subme=10/psy=1/psy_rd=1.05:0.10/mixed_ref=1/me_range=32/chroma_me=1/trellis=2/8x8dct=1/cqm=2/deadzone=21, обычно, 11/fast_pskip=0/chroma_qp_offset=-2/threads=6/sliced_threads=0/nr=0/decimate=1/interlaced=0/constrained_intra=0/bframes=6/b_pyramid=2/b_adapt=2/b_bias=0/direct=3/weightb=1/open_gop=0/weightp=2/keyint=250/keyint_min=25/scenecut=40/intra_refresh=0/rc_lookahead=40/rc=2pass/mbtree=1/bitrate=6098/ratetol=1.0/qcomp=0.60/qpmin=10/qpmax=51/qpstep=4/cplxblur=20.0/qblur=0.5/vbv_maxrate=50000/vbv_bufsize=50000/ip_ratio=1.40/aq=1:0.80/nal_hrd=none
    Язык : English
    Default : Да
    Forced : Нет

    Аудио #1
    Идентификатор : 2
    Формат : AC-3
    Формат/Информация : Audio Coding 3
    Расширение режима : CM (complete main)
    Параметр Endianness формата : Big
    Идентификатор кодека : A_AC3
    Продолжительность : 1 ч. Боже как давно это было. 42 м.
    Вид битрейта : Постоянный
    Битрейт : 384 Кбит/сек
    Каналы : 6 каналов
    Расположение каналов : Front: L C R, будто капли серебряной воды, Side: L R, темно как ночью, LFE
    Частота : 48, большей частью, 0 КГц
    Битовая глубина : 16 бит
    Метод сжатия : С потерями
    Размер потока : 282 Мбайт (5%)
    Заголовок : AC3 | 384 Kbps
    Язык : Russian
    Default : Да
    Forced : Нет

    Аудио #2
    Идентификатор : 3
    Формат : AC-3
    Формат/Информация : Audio Coding 3
    Расширение режима : CM (complete main)
    Параметр Endianness формата : Big
    Идентификатор кодека : A_AC3
    Продолжительность : 1 ч. Я например по сценарию ожидал большой напряженности. 42 м.
    Вид битрейта : Постоянный
    Битрейт : 192 Кбит/сек
    Каналы : 2 канала
    Расположение каналов : Front: L R
    Частота : 48, как обычно, 0 КГц
    Битовая глубина : 16 бит
    Метод сжатия : С потерями
    Размер потока : 141 Мбайт (3%)
    Заголовок : AC3 | 192 Kbps
    Язык : Ukrainian
    Default : Нет
    Forced : Нет

    Аудио #3
    Идентификатор : 4
    Формат : AC-3
    Формат/Информация : Audio Coding 3
    Расширение режима : CM (complete main)
    Параметр Endianness формата : Big
    Идентификатор кодека : A_AC3
    Продолжительность : 1 ч. Рядом пронесли цветы в корзинах. 42 м.
    Вид битрейта : Постоянный
    Битрейт : 640 Кбит/сек
    Каналы : 6 каналов
    Расположение каналов : Front: L C R, словно майская роза, Side: L R, есть не что иное, LFE
    Частота : 48, будто капли серебряной воды, 0 КГц
    Битовая глубина : 16 бит
    Метод сжатия : С потерями
    Размер потока : 469 Мбайт (9%)
    Заголовок : AC3 | 640 Kbps
    Язык : English
    Default : Нет
    Forced : Нет

    Текст #1
    Идентификатор : 5
    Формат : UTF-8
    Идентификатор кодека : S_TEXT/UTF8
    Идентификатор кодека/Информация : UTF-8 Plain Text
    Заголовок : Full
    Язык : Russian
    Default : Нет
    Forced : Нет

    Текст #2
    Идентификатор : 6
    Формат : UTF-8
    Идентификатор кодека : S_TEXT/UTF8
    Идентификатор кодека/Информация : UTF-8 Plain Text
    Заголовок : Full
    Язык : English
    Default : Нет
    Forced : Нет

    Текст #3
    Идентификатор : 7
    Формат : UTF-8
    Идентификатор кодека : S_TEXT/UTF8
    Идентификатор кодека/Информация : UTF-8 Plain Text
    Заголовок : SDH
    Язык : English
    Default : Нет
    Forced : Нет

    Меню
    00:00:00.000 : en:00:00:00.000
    00:10:54.529 : en:00:10:54.529
    00:17:26.963 : en:00:17:26.963
    00:27:30.065 : en:00:27:30.065
    00:33:51.488 : en:00:33:51.488
    00:38:26.554 : en:00:38:26.554
    00:41:19.477 : en:00:41:19.477
    00:47:23.090 : en:00:47:23.090
    00:52:40.491 : en:00:52:40.491
    00:54:40.777 : en:00:54:40.777
    01:01:20.218 : en:01:01:20.218
    01:07:49.315 : en:01:07:49.315
    01:22:04.753 : en:01:22:04.753
    01:25:09.354 : en:01:25:09.354
    01:31:02.624 : en:01:31:02.624
    01:34:51.728 : en:01:34:51.728



    Релиз подготовил:

    Онлайн видео Под кайфом и привычно, в смятении


    Размер скачиваемого торрента: 5.24 GB (5621109684 Bytes)

    Под кайфом и в смятении/Dazed and Confused (1993) BDRip 720p скачать через торрент бесплатно
    загрузка...
    Рейтинг →
     (голосов: 1, оценка 4/5, голосовать можно 1 раз )

    Другие торренты по теме:

  • Под кайфом и в смятении / Dazed and Confused (1993) BDRip от HQCLUB торрент скачать бесплатно
  • Под кайфом / Loaded (2008) HDRip от Rulya74 | P торрент скачать бесплатно
  • Руслан Ануфриев - Под кайфом скачать через торрент бесплатно
  • Под кайфом / Loaded (2008) DVDRip-AVC | P скачать торрент бесплатно


    • Комментарии (0):

      Информация

      Информация

        Посетители, находящиеся в группе Гости, не могут оставлять комментарии в данной новости.

        ↓ Меню



        ↓ Опрос

        А Вы добавили сайт в закладки?
        Да
        Не


        Top 10 за неделю (Фильмы)