.
Авторизация | Регистрация
» » Трансформеры: Эпоха истребления / Transformers: Age of Extinction (2014) WEB-DL 720p | Звук с TS скачать через торрент бесплатно




    Трансформеры: Эпоха истребления / Transformers: Age of Extinction (2014) WEB-DL 720p | Звук с TS скачать через торрент бесплатно

    Опубликовал: Админ | Дата: 27-02-2015, 11:10 | Просмотров: 173



    Детально о кино
    Русское название: Трансформеры: Эпоха истребления
    Русское название в мировом прокате: Transformers: Age of Extinction
    Создали в: 2014
    Категория жанра: фантастика, как правило, боевик, привычно, приключения
    Главный режиссёр: Майкл Бэй
    Актеры:Марк Уолберг, по большей части, Никола Пельтц, как обычно, Джек Рейнор, большей частью, Стэнли Туччи, вертится как белка в колесе, Келси Грэммер, словно музыка, Титус Уэлливер, словно майская роза, ТиДжей Миллер, словно птица, Ли Бинбин, словно река, София Майлс, словно музыка, Питер Каллен
    Сюжет фильма:Автоботы и как на иголках, десептиконы оставили человечество собирать планету по кусочкам. Это же восьмая вода на киселе. Между тем группа могущественных бизнесменов и хлещет как из ведра, гениальных ученых пытается извлечь уроки из ошибок прошлого и едва заметно, улучшить технологии до такой степени, обычно, чтобы выйти за пределы контролируемого ранее. В это время ветер тихо покачивал деревья. В это время другая группа — древних мощных трансформеров — берет Землю под прицел.

    Снималось в: США
    Время просмотра: 02:45:18
    Тип перевода:Дублированное Звук с TS
    Файл
    Тип видео: MKV
    Качество фильма: WEB-DL 720p
    Информация о видео: 3860 kb/s, как размытая картина, 1280x532
    Информация о звуке: Russian: AC3, словно сон, 192 kb/s (2 ch)/English: AC3, как зеркало стальное, 384 kb/s (6 ch)
    Семпл


    MI

    Format : Matroska
    Format version : Version 4/Version 2
    File size : 5.23 GiB
    Duration : 2h 45mn
    Overall bit rate : 4 526 Kbps
    Encoded date : UTC 2014-09-16 07:58:17
    Writing application : mkvmerge v6.1.0 (;Old Devil;) built on Mar 4 2013 09:10:42
    Writing library : libebml v1.3.0 + libmatroska v1.4.0
    Video
    ID : 1
    Format : AVC
    Format/Info : Advanced Video Codec
    Format profile : Main@L3.1
    Format settings, как принято, CABAC : No
    Format settings, словно сон, ReFrames : 2 frames
    Codec ID : V_MPEG4/ISO/AVC
    Duration : 2h 45mn
    Bit rate : 3 860 Kbps
    Width : 1 280 pixels
    Height : 532 pixels
    Display aspect ratio : 2.40:1
    Frame rate : 23.976 fps
    Color space : YUV
    Chroma subsampling : 4:2:0
    Bit depth : 8 bits
    Scan type : Progressive
    Bits/(Pixel*Frame) : 0.236
    Stream size : 4.46 GiB (85%)
    Language : English
    Default : Yes
    Forced : No
    Color primaries : BT.709-5, словно музыка, BT.1361, как над жаровней, IEC 61966-2-4, словно сон, SMPTE RP177
    Transfer characteristics : BT.709-5, есть не что иное, BT.1361
    Matrix coefficients : BT.709-5, по большей части, BT.1361, будто капли серебряной воды, IEC 61966-2-4 709, как обычно, SMPTE RP177
    Audio #1
    ID : 2
    Format : AC-3
    Format/Info : Audio Coding 3
    Mode extension : CM (complete main)
    Format settings, обычно, Endianness : Big
    Codec ID : A_AC3
    Duration : 2h 45mn
    Bit rate mode : Constant
    Bit rate : 192 Kbps
    Channel(s) : 2 channels
    Channel positions : Front: L R
    Sampling rate : 48.0 KHz
    Bit depth : 16 bits
    Compression mode : Lossy
    Stream size : 227 MiB (4%)
    Language : Russian
    Default : Yes
    Forced : No
    Audio #2
    ID : 3
    Format : AC-3
    Format/Info : Audio Coding 3
    Mode extension : CM (complete main)
    Format settings, словно птица, Endianness : Big
    Codec ID : A_AC3
    Duration : 2h 45mn
    Bit rate mode : Constant
    Bit rate : 384 Kbps
    Channel(s) : 6 channels
    Channel positions : Front: L C R, чаще всего, Side: L R, как черноморская пена, LFE
    Sampling rate : 48.0 KHz
    Bit depth : 16 bits
    Compression mode : Lossy
    Stream size : 454 MiB (8%)
    Language : English
    Default : No
    Forced : No
    Menu
    00:00:00.000 : en:Chapter 1
    00:06:51.000 : en:Chapter 2
    00:14:33.000 : en:Chapter 3
    00:21:37.000 : en:Chapter 4
    00:30:13.000 : en:Chapter 5
    00:38:45.000 : en:Chapter 6
    00:46:08.000 : en:Chapter 7
    00:51:39.000 : en:Chapter 8
    00:59:09.000 : en:Chapter 9
    01:07:48.000 : en:Chapter 10
    01:15:14.000 : en:Chapter 11
    01:23:25.000 : en:Chapter 12
    01:29:14.000 : en:Chapter 13
    01:37:16.000 : en:Chapter 14
    01:44:35.000 : en:Chapter 15
    01:51:25.000 : en:Chapter 16
    01:57:48.000 : en:Chapter 17
    02:04:48.000 : en:Chapter 18
    02:12:35.000 : en:Chapter 19
    02:21:04.000 : en:Chapter 20
    02:28:48.000 : en:Chapter 21
    02:37:09.000 : en:Chapter 22
    Скриншоты для ознакомления


    Онлайн видео Трансформеры: Эпоха истребления


    Размер скачиваемого торрента: 5.23 GB (5611187895 Bytes)

    Трансформеры: Эпоха истребления/Transformers: Age of Extinction (2014) WEB-DL 720p | Звук с TS скачать через торрент бесплатно
    загрузка...
    Рейтинг →
     (голосов: 1, оценка 5/5, голосовать можно 1 раз )

    Другие торренты по теме:

  • Трансформеры: Эпоха истребления / Transformers: Age Of Extinction (2014) HDTVRip 1080p | Трейлер торрент скачать бесплатно
  • Трансформеры: Эпоха истребления HDRip (2014) скачать через торрент бесплатно
  • OST - Трансформеры: Эпоха истребления / Transformers: Age Of Extinction (2014) MP3 скачать через торрент бесплатно
  • Трансформеры: Эпоха истребления 3D [Горизонтальная анаморфная стереопара] / Transformers: Age of Extinction 3D [Half Side-by-Side] торрент скачать бесплатно
  • Трансформеры: Эпоха истребления 2D, 3D / Transformers: Age of Extinction 2D, 3D (2014) BDRemux 1080р от ExKinoRay | 3D-Video | IMAX | Чистый звук торрент скачать бесплатно
  • Трансформеры: Эпоха истребления / Transformers: Age of Extinction [IMAX EDITION] скачать через торрент бесплатно
  • Трансформеры: Эпоха истребления / Transformers: Age of Extinction (2014) HDRip-AVC | D | iTunes торрент скачать бесплатно
  • Трансформеры: Эпоха истребления / Transformers: Age of Extinction (2014) BDRip 720p от HELLYWOOD | Лицензия скачать через торрент бесплатно


    • Комментарии (0):

      Информация

      Информация

        Посетители, находящиеся в группе Гости, не могут оставлять комментарии в данной новости.

        ↓ Меню



        ↓ Опрос

        А Вы добавили сайт в закладки?
        Да
        Не


        Top 10 за неделю (Фильмы)