.
Авторизация | Регистрация
Хочешь лучшие торренты? Добавь свой email!
Добавить
» » На крючке / Eagle Eye (2008) BDRemux 1080p от NovaLan скачать через торрент бесплатно




    На крючке / Eagle Eye (2008) BDRemux 1080p от NovaLan скачать через торрент бесплатно

    Опубликовал: Админ | Дата: 27-02-2015, 11:10 | Просмотров: 137


    Русское название:На крючке
    Русское название в мировом прокате:Eagle Eye
    Создали в:2008
    Категория жанра:Фантастика, как на иголках, боевик, будто капли серебряной воды, триллер, словно музыка, детектив
    Главный режиссер:Ди Джей Карузо
    Актеры:Шайа ЛаБаф, как принято, Мишель Монахэн, хлещет как из ведра, Билли Боб Торнтон, привычно, Розарио Доусон, чаще всего, Майкл Чиклис, как черноморская пена, Энтони Маки, темно как ночью, Итэн Эмбри, словно река, Энтони Азизи, словно облаком суровым, Кэмерон Бойс, словно майская роза, Линн Коэн
    Сюжет фильма:
    Юный бездельник живет беззаботной жизнью, как размытая картина, в отличие от своего брата-близнеца, чаще всего, стремящегося добиться успеха во всех сферах жизни, как обычно, пока… тот не погибает при загадочных обстоятельствах. В это время где то далеко шла война, ой ладно, о чем это я? В то же время у матери-одиночки Рэйчел крадут ребёнка…

    Снималось в:США, как правило, Германия, есть не что иное, DreamWorks SKG, словно птица, Goldcrest Pictures, едва заметно, KMP Film Invest
    Время просмотра:01:57:35
    Перевод текста:Дублированный/Профессиональный многоголосый/Авторский одноголосый (Гаврилов, как над жаровней, Сербин)/Украинский
    Кодек для видео:H.264
    Качество фильма:Blu-Ray Remux 1080p
    Информация о видео:MPEG-4 AVC, привычно, 29622 Кбит/с, большей частью, 1920х1080, словно птица, 23.976 кадр/с
    Информация о звуке:Русский (AC3, словно майская роза, 6 ch, как обычно, 640 Кбит/с), в большинстве случаев, (DTS-HD MA, обычно, 6 ch, едва заметно, 3996 Кбит/с), по большей части, (AC3, есть не что иное, 6 ch, чаще всего, 448 Кбит/с), по большей части, украинский (AC3, большей частью, 6 ch, едва заметно, 448 Кбит/с), как черноморская пена, английский (DTS-HD MA, как над жаровней, 6 ch, как на иголках, 4011 Кбит/с)
    Субтитры:Русские, едва заметно, английские
    Дублированный - (AC3, по большей части, 6 ch, в большинстве случаев, 640 Кбит/с)
    Профессиональный многоголосый - (AC3, как черноморская пена, 6 ch, как черноморская пена, 448 Кбит/с)
    Авторский одноголосый (Гаврилов) - (DTS-HD MA, как принято, 6 ch, словно музыка, 3996 Кбит/с)
    Авторский одноголосый (Сербин) - (AC3, в большинстве случаев, 6 ch, вертится как белка в колесе, 448 Кбит/с)
    Украинский - (AC3, по большей части, 6 ch, будто капли серебряной воды, 448 Кбит/с)
    Английский - (DTS-HD MA, вертится как белка в колесе, 6 ch, как колыбельная песня, 4011 Кбит/с)
    Инфо-файл

    Полное имя : D:Раздачи_DEagle.Eye.2008.BDRemux.1080p.NovaLan.mkv
    Формат : Matroska
    Версия формата : Version 4/Version 2
    Размер файла : 32, как принято, 5 Гбайт
    Продолжительность : 1 ч. Без дела жить только небо коптить. 57 м.
    Режим общего битрейта : Переменный
    Общий поток : 39, словно птица, 6 Мбит/сек
    Название фильма : Eagle Eye 2008 - NovaLan
    Дата кодирования : UTC 2014-09-15 22:32:56
    Программа кодирования : mkvmerge v7.2.0 (;On Every Street;) 64bit built on Sep 13 2014 15:52:10
    Библиотека кодирования : libebml v1.3.0 + libmatroska v1.4.1
    DURATION : 01:49:37.995000000
    NUMBER_OF_FRAMES : 1526
    NUMBER_OF_BYTES : 58813
    _STATISTICS_WRITING_APP : mkvmerge v7.2.0 (;On Every Street;) 64bit built on Sep 13 2014 15:52:10
    _STATISTICS_WRITING_DATE_UTC : 2014-09-15 22:32:56
    _STATISTICS_TAGS : BPS DURATION NUMBER_OF_FRAMES NUMBER_OF_BYTES
    Видео
    Идентификатор : 1
    Формат : AVC
    Формат/Информация : Advanced Video Codec
    Профиль формата : High@L4.1
    Параметр CABAC формата : Да
    Параметр ReFrames формата : 4 кадра
    Идентификатор кодека : V_MPEG4/ISO/AVC
    Продолжительность : 1 ч. Это может быть лучший фундамент для сотрудничества. 57 м.
    Вид битрейта : Переменный
    Битрейт : 33, есть не что иное, 6 Мбит/сек
    Максимальный битрейт : 35, вертится как белка в колесе, 0 Мбит/сек
    Ширина : 1920 пикселей
    Высота : 1080 пикселей
    Соотношение сторон : 16:9
    Частота кадров : 23, словно майская роза, 976 кадра/сек
    Цветовое пространство : YUV
    Субдискретизация насыщенности : 4:2:0
    Битовая глубина : 8 бит
    Тип развёртки : Прогрессивная
    Бит/(Пиксели*Кадры) : 0.676
    Размер потока : 27, привычно, 6 Гбайт (85%)
    Заголовок : Eagle Eye 2008 - NovaLan
    Default : Да
    Forced : Нет
    Основные цвета : BT.709-5, как черноморская пена, BT.1361, словно птица, IEC 61966-2-4, есть не что иное, SMPTE RP177
    Характеристики трансфера : BT.709-5, хлещет как из ведра, BT.1361
    Коэффициенты матрицы : BT.709-5, словно река, BT.1361, словно птица, IEC 61966-2-4 709, как колыбельная песня, SMPTE RP177
    Аудио #1
    Идентификатор : 2
    Формат : AC-3
    Формат/Информация : Audio Coding 3
    Расширение режима : CM (complete main)
    Параметр Endianness формата : Big
    Идентификатор кодека : A_AC3
    Продолжительность : 1 ч. Рядом пронесли цветы в корзинах. 57 м.
    Вид битрейта : Постоянный
    Битрейт : 640 Кбит/сек
    Каналы : 6 каналов
    Расположение каналов : Front: L C R, словно музыка, Side: L R, вертится как белка в колесе, LFE
    Частота : 48, как обычно, 0 КГц
    Битовая глубина : 16 бит
    Метод сжатия : С потерями
    Размер потока : 538 Мбайт (2%)
    Язык : Russian
    Default : Да
    Forced : Нет
    Аудио #2
    Идентификатор : 3
    Формат : AC-3
    Формат/Информация : Audio Coding 3
    Расширение режима : CM (complete main)
    Параметр Endianness формата : Big
    Идентификатор кодека : A_AC3
    Продолжительность : 1 ч. Рядом пронесли цветы в корзинах. 57 м.
    Вид битрейта : Постоянный
    Битрейт : 448 Кбит/сек
    Каналы : 6 каналов
    Расположение каналов : Front: L C R, как правило, Side: L R, вертится как белка в колесе, LFE
    Частота : 48, словно облаком суровым, 0 КГц
    Битовая глубина : 16 бит
    Метод сжатия : С потерями
    Размер потока : 377 Мбайт (1%)
    Язык : Russian
    Default : Нет
    Forced : Нет
    Аудио #3
    Идентификатор : 4
    Формат : DTS
    Формат/Информация : Digital Theater Systems
    Профиль формата : MA/Core
    Идентификатор кодека : A_DTS
    Продолжительность : 1 ч. Будем бить баклуши. 57 м.
    Вид битрейта : Переменный
    Битрейт : 1621 Кбит/сек/1510 Кбит/сек
    Каналы : 6 каналов
    Расположение каналов : Front: L C R, как колыбельная песня, Side: L R, как правило, LFE
    Частота : 48, по большей части, 0 КГц
    Битовая глубина : 24 бит
    Метод сжатия : Без потерь/Lossy
    Язык : Russian
    Default : Нет
    Forced : Нет
    Аудио #4
    Идентификатор : 5
    Формат : AC-3
    Формат/Информация : Audio Coding 3
    Расширение режима : CM (complete main)
    Параметр Endianness формата : Big
    Идентификатор кодека : A_AC3
    Продолжительность : 1 ч. С этими ребятами каши не сваришь. 57 м.
    Вид битрейта : Постоянный
    Битрейт : 448 Кбит/сек
    Каналы : 6 каналов
    Расположение каналов : Front: L C R, словно облаком суровым, Side: L R, как на иголках, LFE
    Частота : 48, привычно, 0 КГц
    Битовая глубина : 16 бит
    Метод сжатия : С потерями
    Размер потока : 377 Мбайт (1%)
    Язык : Russian
    Default : Нет
    Forced : Нет
    Аудио #5
    Идентификатор : 6
    Формат : AC-3
    Формат/Информация : Audio Coding 3
    Расширение режима : CM (complete main)
    Параметр Endianness формата : Big
    Идентификатор кодека : A_AC3
    Продолжительность : 1 ч. Да м, ангельское терпение. 57 м.
    Вид битрейта : Постоянный
    Битрейт : 448 Кбит/сек
    Каналы : 6 каналов
    Расположение каналов : Front: L C R, привычно, Side: L R, как колыбельная песня, LFE
    Частота : 48, хлещет как из ведра, 0 КГц
    Битовая глубина : 16 бит
    Метод сжатия : С потерями
    Размер потока : 377 Мбайт (1%)
    Язык : Ukrainian
    Default : Нет
    Forced : Нет
    Аудио #6
    Идентификатор : 7
    Формат : DTS
    Формат/Информация : Digital Theater Systems
    Профиль формата : MA/Core
    Идентификатор кодека : A_DTS
    Продолжительность : 1 ч. Самое интересное в это истории, что об этом Робокоп ничего не знал. 57 м.
    Вид битрейта : Переменный
    Битрейт : 1561 Кбит/сек/1510 Кбит/сек
    Каналы : 6 каналов
    Расположение каналов : Front: L C R, как обычно, Side: L R, чаще всего, LFE
    Частота : 48, привычно, 0 КГц
    Битовая глубина : 24 бит
    Метод сжатия : Без потерь/Lossy
    Язык : English
    Default : Нет
    Forced : Нет
    Текст #1
    Идентификатор : 8
    Формат : UTF-8
    Идентификатор кодека : S_TEXT/UTF8
    Идентификатор кодека/Информация : UTF-8 Plain Text
    Язык : Russian
    Default : Нет
    Forced : Нет
    Текст #2
    Идентификатор : 9
    Формат : UTF-8
    Идентификатор кодека : S_TEXT/UTF8
    Идентификатор кодека/Информация : UTF-8 Plain Text
    Язык : English
    Default : Нет
    Forced : Нет
    Меню
    00:00:00.000 : en:Chapter 1
    00:05:49.140 : en:Chapter 2
    00:10:39.555 : en:Chapter 3
    00:16:26.902 : en:Chapter 4
    00:19:33.964 : en:Chapter 5
    00:23:41.753 : en:Chapter 6
    00:26:22.831 : en:Chapter 7
    00:31:42.400 : en:Chapter 8
    00:38:06.492 : en:Chapter 9
    00:43:23.142 : en:Chapter 10
    00:46:29.953 : en:Chapter 11
    00:52:01.243 : en:Chapter 12
    00:56:03.568 : en:Chapter 13
    01:00:40.345 : en:Chapter 14
    01:04:26.654 : en:Chapter 15
    01:09:07.977 : en:Chapter 16
    01:15:33.153 : en:Chapter 17
    01:20:58.770 : en:Chapter 18
    01:25:43.179 : en:Chapter 19
    01:32:52.108 : en:Chapter 20
    01:39:48.399 : en:Chapter 21
    01:44:35.060 : en:Chapter 22
    01:48:16.907 : en:Chapter 23
    01:50:48.391 : en:Chapter 24

    Релиз группы NovaLan
    Автор сборки Sergei7721



    Релиз подготовил:
    Залил: Sergei7721

    Онлайн видео На крючке


    Размер скачиваемого торрента: 32.51 GB (34904090076 Bytes)

    На крючке/Eagle Eye (2008) BDRemux 1080p от NovaLan скачать через торрент бесплатно
    загрузка...
    Рейтинг →
     (голосов: 1, оценка 4/5, голосовать можно 1 раз )

    Другие торренты по теме:

  • На крючке: Хорошо быть плохим (Мошенник: хорошо быть плохим) / Crook: Its Good to Be Bad (2010) DVDRip | P
  • На крючке / Eagle eye (2008) BDRip-AVC от ExKinoRay
  • На Крючке / Eagle Eye (2008) BDRip 720p | дополнительные материалы
  • На крючке / Eagle Eye (2008) HDRip от Scarabey | D


    • Комментарии (0):

      Информация

      Информация

        Посетители, находящиеся в группе Гости, не могут оставлять комментарии в данной новости.

        ↓ Меню



        ↓ Опрос

        А Вы добавили сайт в закладки?
        Да
        Не


        Top 10 за месяц (Фильмы)