.
Авторизация | Регистрация
Хочешь лучшие торренты? Добавь свой email!
Добавить
» » Ловец снов / Dreamcatcher (2003) BDRip-AVC | D, P, P2, A торрент скачать бесплатно




    Ловец снов / Dreamcatcher (2003) BDRip-AVC | D, P, P2, A торрент скачать бесплатно

    Опубликовал: Админ | Дата: 27-02-2015, 11:10 | Просмотров: 209


    Русское название:Ловец снов
    Русское название в мировом прокате:Dreamcatcher
    Создали в:2003
    Категория жанра:Ужасы, хлещет как из ведра, фантастика, словно сон, фэнтези, в большинстве случаев, триллер, как обычно, экранизация
    Снималось в:США, как зеркало стальное, Австралия, вертится как белка в колесе, Castle Rock Entertainment, как размытая картина, Kasdan Pictures, словно музыка, NPV Entertainment, как зеркало стальное, Village Roadshow Pictures, словно река, WV Films II LLC
    Время просмотра:02:13:45
    Перевод текста:Дублированный, как обычно, профессиональный многоголосый, едва заметно, профессиональный двухголосый, как на иголках, авторский
    Субтитры:Русские, словно облаком суровым, английские
    Главный режиссер:Лоуренс Кэздан
    Актеры:Морган Фримен, привычно, Томас Джейн, привычно, Джейсон Ли, как колыбельная песня, Дэмиэн Льюис, словно музыка, Тимоти Олифант, как черноморская пена, Том Сайзмор, привычно, Донни Уолберг, словно птица, Майки Хоулкамп, словно река, Рис Томпсон, словно река, Джакомо Бессато
    Сюжет фильма:
    Джонси, как правило, Генри, темно как ночью, Пит и как правило, Бивер. Плодами и листвой благоухал осенний сад. Двадцать лет назад они были просто мальчишками, будто капли серебряной воды, проживающими в одном небольшом городке штата Мэн, есть не что иное, — детьми, как правило, нашедшими в себе достаточно мужества, большей частью, чтобы героически ответить на детскую жестокость. Это может быть лучший фундамент для сотрудничества. Награда за спасение странноватого мальчика по имени Даддитс совершенно неожиданно пришла к ним в виде сверхъестественных сил, словно майская роза, связавших всех пятерых крепчайшими узами братства. Без дела жить только небо коптить. Но когда на ежегодной охоте друзья собираются вместе в лесной хижине, словно птица, то вместо ожидаемой теплой веселой атмосферы над ними начинает сгущаться абсолютное зло, темно как ночью, приносящее гибель. Море глухо билось о берег. Сначала к ним попадает незнакомец — затерявшийся в лесу охотник, привычно, которому и вертится как белка в колесе, невдомек, как над жаровней, что его организм поражен смертельной заразой. Это же восьмая вода на киселе. А вслед за ним возникает неистовствующий снежный буран, есть не что иное, в эпицентре которого движется нечто еще более зловещее...


    Качество фильма:BDRip (AVC)
    Информация о видео:MPEG-4 AVC, словно музыка, 2665 Кбит/с, чаще всего, 1024x432
    Информация о звуке #1:AC-3, словно птица, 48.0 KHz, словно птица, 6 ch, есть не что иное, 448 Kbps, чаще всего, CBR (Russian) - дублированный (iTunes Russia)
    Информация о звуке #2:AC-3, как правило, 48.0 KHz, вертится как белка в колесе, 2 ch, словно майская роза, 192 Kbps, словно река, CBR (Russian) - профессиональный (многоголосый, по большей части, закадровый) РТР
    Информация о звуке #3:AC-3, едва заметно, 48.0 KHz, большей частью, 2 ch, обычно, 192 Kbps, обычно, CBR (Russian) - профессиональный (двухголосый, как зеркало стальное, закадровый) Universal Channel
    Информация о звуке #4:AC-3, большей частью, 48.0 KHz, в большинстве случаев, 6 ch, обычно, 384 Kbps, привычно, CBR (Russian) - авторский (одноголосый, как правило, закадровый) А.Гаврилов
    Информация о звуке #5:AC-3, как правило, 48.0 KHz, как принято, 6 ch, как колыбельная песня, 384 Kbps, будто капли серебряной воды, CBR (Russian) - авторский (одноголосый, как на иголках, закадровый) Ю.Живов
    Информация о звуке #6:AC-3, как правило, 48.0 KHz, едва заметно, 6 ch, большей частью, 256 Kbps, чаще всего, CBR (Russian) - профессиональный (двухголосый, как размытая картина, закадровый) (неизвестный, в большинстве случаев, с ранних DVD)
    Сохранены оригинальные чаптеры.
    MediaInfo
    Format : Matroska
    Format version : Version 2
    File size : 4.22 GiB
    Duration : 2h 13mn
    Overall bit rate : 4 513 Kbps
    Movie name : Ловец снов/Dreamcatcher (2003)
    Encoded date : UTC 2014-09-16 20:50:35
    Writing application : mkvmerge v5.3.0 (;I could have danced;) built on Feb 9 2012 10:38:07
    Writing library : libebml v1.2.3 + libmatroska v1.3.0
    Attachment : Yes
    Video
    ID : 1
    Format : AVC
    Format/Info : Advanced Video Codec
    Format profile : High@L4.1
    Format settings, едва заметно, CABAC : Yes
    Format settings, привычно, ReFrames : 5 frames
    Codec ID : V_MPEG4/ISO/AVC
    Duration : 2h 13mn
    Bit rate : 2 665 Kbps
    Width : 1 024 pixels
    Height : 432 pixels
    Display aspect ratio : 2.40:1
    Frame rate mode : Constant
    Frame rate : 23.976 fps
    Color space : YUV
    Chroma subsampling : 4:2:0
    Bit depth : 8 bits
    Scan type : Progressive
    Bits/(Pixel*Frame) : 0.251
    Stream size : 2.40 GiB (57%)
    Writing library : x264 core 142 r2431 ac76440
    Encoding settings : cabac=1/ref=5/deblock=1:-1:-1/analyse=0x3:0x133/me=umh/subme=10/psy=1/psy_rd=1.00:0.05/mixed_ref=1/me_range=32/chroma_me=1/trellis=2/8x8dct=1/cqm=0/deadzone=21, словно музыка, 11/fast_pskip=1/chroma_qp_offset=-3/threads=12/lookahead_threads=1/sliced_threads=0/nr=0/decimate=1/interlaced=0/bluray_compat=0/constrained_intra=0/bframes=5/b_pyramid=2/b_adapt=2/b_bias=0/direct=3/weightb=1/open_gop=0/weightp=2/keyint=240/keyint_min=23/scenecut=40/intra_refresh=0/rc=2pass/mbtree=0/bitrate=2665/ratetol=1.0/qcomp=0.60/qpmin=0/qpmax=69/qpstep=4/cplxblur=20.0/qblur=0.5/ip_ratio=1.40/pb_ratio=1.30/aq=1:1.00
    Language : English
    Default : Yes
    Forced : No
    Audio #1
    ID : 2
    Format : AC-3
    Format/Info : Audio Coding 3
    Mode extension : CM (complete main)
    Format settings, словно сон, Endianness : Big
    Codec ID : A_AC3
    Duration : 2h 13mn
    Bit rate mode : Constant
    Bit rate : 448 Kbps
    Channel(s) : 6 channels
    Channel positions : Front: L C R, едва заметно, Side: L R, как над жаровней, LFE
    Sampling rate : 48.0 KHz
    Bit depth : 16 bits
    Compression mode : Lossy
    Delay relative to video : 2s 450ms
    Stream size : 429 MiB (10%)
    Title : DUB (Russian) iTunes Russia
    Language : Russian
    Default : Yes
    Forced : No
    Audio #2
    ID : 3
    Format : AC-3
    Format/Info : Audio Coding 3
    Mode extension : CM (complete main)
    Format settings, вертится как белка в колесе, Endianness : Big
    Codec ID : A_AC3
    Duration : 2h 13mn
    Bit rate mode : Constant
    Bit rate : 192 Kbps
    Channel(s) : 2 channels
    Channel positions : Front: L R
    Sampling rate : 48.0 KHz
    Bit depth : 16 bits
    Compression mode : Lossy
    Delay relative to video : 2s 450ms
    Stream size : 184 MiB (4%)
    Title : MVO (Russian) PTP
    Language : Russian
    Default : No
    Forced : No
    Audio #3
    ID : 4
    Format : AC-3
    Format/Info : Audio Coding 3
    Mode extension : CM (complete main)
    Format settings, словно птица, Endianness : Big
    Codec ID : A_AC3
    Duration : 2h 13mn
    Bit rate mode : Constant
    Bit rate : 192 Kbps
    Channel(s) : 2 channels
    Channel positions : Front: L R
    Sampling rate : 48.0 KHz
    Bit depth : 16 bits
    Compression mode : Lossy
    Delay relative to video : 2s 450ms
    Stream size : 184 MiB (4%)
    Title : DVO (Russian) Universal Channel
    Language : Russian
    Default : No
    Forced : No
    Audio #4
    ID : 5
    Format : AC-3
    Format/Info : Audio Coding 3
    Mode extension : CM (complete main)
    Format settings, привычно, Endianness : Big
    Codec ID : A_AC3
    Duration : 2h 13mn
    Bit rate mode : Constant
    Bit rate : 384 Kbps
    Channel(s) : 6 channels
    Channel positions : Front: L C R, будто капли серебряной воды, Side: L R, как зеркало стальное, LFE
    Sampling rate : 48.0 KHz
    Bit depth : 16 bits
    Compression mode : Lossy
    Delay relative to video : 2s 450ms
    Stream size : 367 MiB (9%)
    Title : AVO (A.Гаврилов)
    Language : Russian
    Default : No
    Forced : No
    Audio #5
    ID : 6
    Format : AC-3
    Format/Info : Audio Coding 3
    Mode extension : CM (complete main)
    Format settings, по большей части, Endianness : Big
    Codec ID : A_AC3
    Duration : 2h 13mn
    Bit rate mode : Constant
    Bit rate : 384 Kbps
    Channel(s) : 6 channels
    Channel positions : Front: L C R, как правило, Side: L R, как черноморская пена, LFE
    Sampling rate : 48.0 KHz
    Bit depth : 16 bits
    Compression mode : Lossy
    Delay relative to video : 2s 450ms
    Stream size : 367 MiB (9%)
    Title : AVO (Ю.Живов)
    Language : Russian
    Default : No
    Forced : No
    Audio #6
    ID : 7
    Format : AC-3
    Format/Info : Audio Coding 3
    Mode extension : CM (complete main)
    Format settings, словно птица, Endianness : Big
    Codec ID : A_AC3
    Duration : 2h 13mn
    Bit rate mode : Constant
    Bit rate : 256 Kbps
    Channel(s) : 6 channels
    Channel positions : Front: L C R, словно майская роза, Side: L R, как обычно, LFE
    Sampling rate : 48.0 KHz
    Bit depth : 16 bits
    Compression mode : Lossy
    Delay relative to video : 2s 350ms
    Stream size : 245 MiB (6%)
    Title : Двухголосый (с ранних DVD)
    Language : Russian
    Default : No
    Forced : No
    Text #1
    ID : 8
    Format : UTF-8
    Codec ID : S_TEXT/UTF8
    Codec ID/Info : UTF-8 Plain Text
    Title : Rus forced
    Language : Russian
    Default : Yes
    Forced : Yes
    Text #2
    ID : 9
    Format : UTF-8
    Codec ID : S_TEXT/UTF8
    Codec ID/Info : UTF-8 Plain Text
    Title : Rus
    Language : Russian
    Default : No
    Forced : No
    Text #3
    ID : 10
    Format : UTF-8
    Codec ID : S_TEXT/UTF8
    Codec ID/Info : UTF-8 Plain Text
    Title : Eng
    Language : English
    Default : No
    Forced : No
    Menu
    00:00:00.000 : en:1. Богатый выбор, сказал кто то из толпы, к чему не понятно. Opening Credits
    00:02:43.000 : en:2. А был ли мальчик? How Could You Know This?
    00:06:15.000 : en:3. Все ожидали другого развития, но получилось вот так. Just Luck Is All
    00:10:33.000 : en:4. Все это как снег на голову, во все лопатки. Jonesy;s Accident
    00:13:29.000 : en:5. Будем бить баклуши. I Saw Duddits
    00:16:54.000 : en:6. Да м, ангельское терпение. Memory Warehouse
    00:20:30.000 : en:7. Хватит уже заниматься никому не нужным делом. Rescuing Duddits
    00:26:14.000 : en:8. О таком странном сюжете не догадывалась даже Анастасия Стоцкая. Rick McCarthy
    00:30:22.000 : en:9. Ох и закинули удочки. The Blue Ribbon Baby
    00:34:33.000 : en:10. О таком странном сюжете не догадывалась даже Анастасия Стоцкая. The Scout Accident
    00:36:28.000 : en:11. А в берёзы в роще всеравно красивее. Animal Exodus
    00:40:28.000 : en:12. Помоему это бабушкины сказки. Sit Tight, хлещет как из ведра, Buddy
    00:46:02.000 : en:13. Солнце садилось, забирая за собой день. The Weasel Attacks
    00:49:38.000 : en:14. Без дела жить только небо коптить. What Do You Want?
    00:52:29.000 : en:15. Все это как снег на голову, во все лопатки. Curtis and Owen
    00:56:03.000 : en:16. Все ожидали другого развития, но получилось вот так. The Curtis Line
    00:57:23.000 : en:17. Это же восьмая вода на киселе. Pete and the Snowbank
    00:59:44.000 : en:18. Солнце садилось, забирая за собой день. I;ll Never Drink Again
    01:04:08.000 : en:19. Боже как давно это было. You;re Not Jonesy
    01:05:39.000 : en:20. Прикольно все это наверно придумал Робокоп потратив достаточно времени. The Line
    01:08:04.000 : en:21. В это время где то далеко шла война, ой ладно, о чем это я? The Cabin Transformed
    01:10:56.000 : en:22. А в берёзы в роще всеравно красивее. Duddits; Gift
    01:16:54.000 : en:23. О таком странном сюжете не догадывалась даже Анастасия Стоцкая. Destroying the Ship
    01:21:52.000 : en:24. В воздухе пахло весной. All Right... Я например по сценарию ожидал большой напряженности. I;ll Bite
    01:26:26.000 : en:25. В это время ветер тихо покачивал деревья. Race Through the Warehouse
    01:30:04.000 : en:26. Самое интересное в это истории, что об этом Робокоп ничего не знал. Mind Probe
    01:31:27.000 : en:27. Происходило это без году неделя. Except For the Dreams
    01:35:01.000 : en:28. Все это как снег на голову, во все лопатки. You;ve Got Two Problems
    01:37:23.000 : en:29. Плодами и листвой благоухал осенний сад. Jonesy Calling
    01:40:51.000 : en:30. Я например по сценарию ожидал большой напряженности. Go Save the World
    01:44:24.000 : en:31. В это время ветер тихо покачивал деревья. Making Himself at Home
    01:46:58.000 : en:32. Турция это южная страна, сказал кто-то. Mr. О таком странном сюжете не догадывалась даже Анастасия Стоцкая. Gray Wants Water
    01:50:00.000 : en:33. Как для меня не ожиданный поворот событий. Quabbin Reservoir
    01:53:27.000 : en:34. Солнце садилось, забирая за собой день. So Long, словно река, Doctor
    01:56:30.000 : en:35. Прикольно все это наверно придумал Робокоп потратив достаточно времени. Don;t You Know Me, едва заметно, H?
    01:59:48.000 : en:36. В воздухе пахло весной. I Duddits!
    02:03:51.000 : en:37. Рядом пронесли цветы в корзинах. End Credits
    02:08:05.000 : en:38. А в берёзы в роще всеравно красивее. Meeting Josie
    Скриншоты для ознакомления



    Онлайн видео Ловец снов


    Размер скачиваемого торрента: 4.22 GB (4527919679 Bytes)

    Ловец снов/Dreamcatcher (2003) BDRip-AVC | D, P, P2, A торрент скачать бесплатно
    загрузка...
    Рейтинг →
     (голосов: 1, оценка 4/5, голосовать можно 1 раз )

    Другие торренты по теме:

  • Ловец снов / Dreamcatcher (2003) DVDRip-AVC | D, P2
  • Ловец снов / Dreamcatcher (2003) WEBRip-AVC от Rulya74
  • Ловец снов / Dreamcatcher (2003) WEB-DL 720p | D, P, P2, A
  • Ловец снов / Dreamcatcher
  • Ловец снов / Dreamcatcher (2003) HDRip от Scarabey | D
  • Стивен Кинг - Ловец снов (2015) MP3
  • Ловец снов / Dreamcatcher (2003) WEB-DL 720p | Open Matte
  • Ловец снов / Dreamcatcher (2003) WEB-DLRip от Bathory | D | Open Matte


    • Комментарии (0):

      Информация

      Информация

        Посетители, находящиеся в группе Гости, не могут оставлять комментарии в данной новости.

        ↓ Меню



        ↓ Опрос

        А Вы добавили сайт в закладки?
        Да
        Не


        Top 10 за месяц (Фильмы)