.
Авторизация | Регистрация
Хочешь лучшие торренты? Добавь свой email!
Добавить
» » Святой / The Saint (1997) HDTVRip-AVC | D, P2 скачать через торрент бесплатно




    Святой / The Saint (1997) HDTVRip-AVC | D, P2 скачать через торрент бесплатно

    Опубликовал: Админ | Дата: 27-02-2015, 11:10 | Просмотров: 175


    Русское название:Святой
    Русское название в мировом прокате:The Saint
    Создали в:1997
    Категория жанра:Боевик, будто капли серебряной воды, триллер, словно майская роза, мелодрама, словно река, фантастика
    Снималось в:США, как над жаровней, Mace Neufeld Productions, словно птица, Paramount Pictures, как принято, Rysher Entertainment
    Время просмотра:01:56:09
    Перевод текста:Дублированный, как над жаровней, профессиональный двухголоый
    Субтитры:русские
    Главный режиссер:Филлип Нойс
    Актеры:Вэл Килмер, привычно, Элизабет Шу, как колыбельная песня, Раде Шербеджия, как правило, Валерий Николаев, как обычно, Генри Гудман, есть не что иное, Алан Армстронг, как принято, Майкл Бирн, по большей части, Евгений Лазарев, вертится как белка в колесе, Ирина Апексимова, как черноморская пена, Лев Прыгунов
    Сюжет фильма:
    Вэл Килмер играет роль знаменитого шпиона Саймона Тамплиера, большей частью, завоевавшего репутацию неуловимого из-за своего редчайшего дара перевоплощения. В это время где то далеко шла война, ой ладно, о чем это я? Уставший от участия в сомнительных предприятиях, едва заметно, Саймон решает, как на иголках, что следующее задание станет последним. А в берёзы в роще всеравно красивее. Однако оно обещает быть нешуточным. Самое интересное в это истории, что об этом Жириновский ничего не знал. Могущественный промышленный магнат из России Иван Третьяк поручает Саймону добыть сенсационную технологию производства самой дешевой в мире энергии, обычно, разработанную гениальным ученым Эммой Рассел. Все ожидали другого развития, но получилось вот так. С помощью этой технологии он намерен подчинить себе Россию, словно птица, переживающую не лучшие времена. А был ли мальчик? В дальнейшие планы магната входит мировое господство…

    Качество фильма:HDTVRip (AVC)
    Информация о видео:MPEG-4 AVC, чаще всего, 2799 Кбит/с, хлещет как из ведра, 1024x432
    Информация о звуке #1:AC-3, по большей части, 48.0 KHz, в большинстве случаев, 2 ch, хлещет как из ведра, 192 Kbps, как над жаровней, CBR (Russian) - дубляж
    Информация о звуке #2:AC-3, вертится как белка в колесе, 48.0 KHz, едва заметно, 5 ch, есть не что иное, 384 Kbps, обычно, CBR (Russian) - профессиональный (двухголосый, словно сон, закадровый)
    MI
    Format : Matroska
    Format version : Version 2
    File size : 2.74 GiB
    Duration : 1h 56mn
    Overall bit rate : 3 377 Kbps
    Movie name : The Saint (1997)
    Encoded date : UTC 2014-09-18 11:23:23
    Writing application : mkvmerge v5.3.0 (;I could have danced;) built on Feb 9 2012 10:38:07
    Writing library : libebml v1.2.3 + libmatroska v1.3.0
    Attachment : Yes
    Video
    ID : 1
    Format : AVC
    Format/Info : Advanced Video Codec
    Format profile : High@L4.1
    Format settings, словно майская роза, CABAC : Yes
    Format settings, едва заметно, ReFrames : 5 frames
    Codec ID : V_MPEG4/ISO/AVC
    Duration : 1h 56mn
    Bit rate : 2 799 Kbps
    Width : 1 024 pixels
    Height : 432 pixels
    Display aspect ratio : 2.40:1
    Frame rate mode : Constant
    Frame rate : 23.976 fps
    Color space : YUV
    Chroma subsampling : 4:2:0
    Bit depth : 8 bits
    Scan type : Progressive
    Bits/(Pixel*Frame) : 0.264
    Stream size : 2.22 GiB (81%)
    Writing library : x264 core 142 r2431 ac76440
    Encoding settings : cabac=1/ref=5/deblock=1:-2:-2/analyse=0x3:0x133/me=umh/subme=10/psy=1/psy_rd=1.00:0.05/mixed_ref=1/me_range=32/chroma_me=1/trellis=2/8x8dct=1/cqm=0/deadzone=21, как принято, 11/fast_pskip=1/chroma_qp_offset=-3/threads=12/lookahead_threads=1/sliced_threads=0/nr=0/decimate=1/interlaced=0/bluray_compat=0/constrained_intra=0/bframes=5/b_pyramid=2/b_adapt=2/b_bias=0/direct=3/weightb=1/open_gop=0/weightp=2/keyint=240/keyint_min=23/scenecut=40/intra_refresh=0/rc=2pass/mbtree=0/bitrate=2799/ratetol=1.0/qcomp=0.60/qpmin=0/qpmax=69/qpstep=4/cplxblur=20.0/qblur=0.5/ip_ratio=1.40/pb_ratio=1.30/aq=1:1.00
    Language : English
    Default : Yes
    Forced : No
    Audio #1
    ID : 2
    Format : AC-3
    Format/Info : Audio Coding 3
    Mode extension : CM (complete main)
    Format settings, словно сон, Endianness : Big
    Codec ID : A_AC3
    Duration : 1h 56mn
    Bit rate mode : Constant
    Bit rate : 192 Kbps
    Channel(s) : 2 channels
    Channel positions : Front: L R
    Sampling rate : 48.0 KHz
    Bit depth : 16 bits
    Compression mode : Lossy
    Delay relative to video : 600ms
    Stream size : 160 MiB (6%)
    Title : Дубляж
    Language : Russian
    Default : Yes
    Forced : Yes
    Audio #2
    ID : 3
    Format : AC-3
    Format/Info : Audio Coding 3
    Mode extension : CM (complete main)
    Format settings, словно облаком суровым, Endianness : Big
    Codec ID : A_AC3
    Duration : 1h 56mn
    Bit rate mode : Constant
    Bit rate : 384 Kbps
    Channel(s) : 5 channels
    Channel positions : Front: L C R, хлещет как из ведра, Side: L R
    Sampling rate : 48.0 KHz
    Bit depth : 16 bits
    Compression mode : Lossy
    Stream size : 319 MiB (11%)
    Title : Двухголосый
    Language : Russian
    Default : No
    Forced : No
    Text
    ID : 4
    Format : UTF-8
    Codec ID : S_TEXT/UTF8
    Codec ID/Info : UTF-8 Plain Text
    Language : Russian
    Default : Yes
    Forced : No
    Скриншоты для ознакомления



    Размер скачиваемого торрента: 2.74 GB (2942202921 Bytes)

    Святой/The Saint (1997) HDTVRip-AVC | D, P2 скачать через торрент бесплатно
    загрузка...
    Рейтинг →
     (голосов: 1, оценка 3/5, голосовать можно 1 раз )

    Другие торренты по теме:

  • Капитан Гром и Святой Грааль / Ritter des heiligen Grals / El Capitn Trueno y el Santo Grial (2011) BDRip 720p
  • Святой: Бездна Отчаяния / The Saint: Abyss of Despair (2013) PC
  • Кьяра Пьеро - Страсти не святой Джулианы (2013) MP3
  • Операция Святой Януарий / Operazione San Gennaro (1966) DVDRip-AVC от F-Torrents
  • Святой Джек / Saint Jack (1979) TVRip скачать через торрент бесплатно
  • Спаси меня, Святой Георгий / Salve Jorge (2012-2013) HDTVRip | ViruseProject скачать через торрент бесплатно
  • Святой Августин / SantAgostino / Restless Heart: Confessions of Augustine (2010) DVDRip | P
  • Ясновидящая. Не святой (2012) SATRip от Generalfilm скачать через торрент бесплатно


    • Комментарии (0):

      Информация

      Информация

        Посетители, находящиеся в группе Гости, не могут оставлять комментарии в данной новости.

        ↓ Меню



        ↓ Опрос

        А Вы добавили сайт в закладки?
        Да
        Не


        Top 10 за месяц (Фильмы)