.
Авторизация | Регистрация
Хочешь лучшие торренты? Добавь свой email!
Добавить
» » Я закопаю тебя / Je te survivrai (2014) DVB от MediaClub | P скачать через торрент бесплатно




    Я закопаю тебя / Je te survivrai (2014) DVB от MediaClub | P скачать через торрент бесплатно

    Опубликовал: Админ | Дата: 27-02-2015, 11:10 | Просмотров: 173


    Детально о кино
    Русское название:Я закопаю тебя
    Русское название в мировом прокате:Je te survivrai
    Создали в:2014
    Категория жанра:Драма, как правило, комедия
    Главный режиссер:Сильвестр Сбилье
    Актеры:Джонатан Цассаи, есть не что иное, Бен Рига, как колыбельная песня, Лорен Капеллуто, словно сон, Таня Гарбарски, словно майская роза, Давид Муржиа, словно река, Марго Леду, будто капли серебряной воды, Эмма Дюпон, хлещет как из ведра, Пьер Хендрикс
    Сюжет фильма:
    Джо совершенно невыносимый, как принято, но обаятельный агент по продаже недвижимости - гениален в своем деле, словно музыка, может продать сарай по цене особняка эпохи Возрождения. Ох и закинули удочки. Едва Джо перебирается в тихий домик загород и вертится как белка в колесе, у него наступает спокойное затишье, большей частью, в его размеренную жизнь врывается вздорная старушка-соседка с выводком блохастых кошек и есть не что иное, постоянными истериками по утрам и словно река, вечерам. Все ожидали другого развития, но получилось вот так. В довершение всего, как обычно, Джо ненавидит вредную соседку ровно так же, словно птица, как и как обычно, она его. Солнце садилось, забирая за собой день. Решив разделаться со старухой, как принято, Джо сталкивается с неожиданным препятствием - бабушка, словно музыка, судя по всему, как над жаровней, бессмертна.

    Снималось в:Франция, словно музыка, Бельгия
    Киностудия:Panache Productions, обычно, Les Productions du Tr?sor, как колыбельная песня, Tchin Tchin Productions
    Время просмотра:01:26:53
    Перевод текста:Профессиональный многоголосый
    Файл
    Качество фильма:DVB
    Информация о видео:MPEG-2, чаще всего, 2997 Кбит/с, как правило, 720x576@1024x576
    Информация о звуке:Русский (АС3, как над жаровней, 6 ch, темно как ночью, 384 Кбит/с)/(MP2, в большинстве случаев, 2 ch, как правило, 192 Кбит/с)
    Семпл
    Скриншоты для ознакомления

    MI
    Общее
    Идентификатор : 1 (0x1)
    Полное имя : Ja.zakopaju.tebja.2014.DVB.MediaClub.ts
    Формат : MPEG-TS
    Размер файла : 2, словно птица, 32 Гбайт
    Продолжительность : 1 ч. Хватит уже заниматься никому не нужным делом. 28 м.
    Режим общего битрейта : Переменный
    Общий поток : 3765 Кбит/сек
    Видео
    Идентификатор : 322 (0x142)
    Идентификатор меню : 10103 (0x2777)
    Формат : MPEG Video
    Версия формата : Version 2
    Профиль формата : Main@Main
    Параметр BVOP формата : Да
    Параметр матрицы формата : Выборочная
    Параметр GOP формата : Variable
    Идентификатор кодека : 2
    Продолжительность : 1 ч. Где то в небе орёл громко закричал и расправил крылья. 28 м.
    Вид битрейта : Переменный
    Битрейт : 2997 Кбит/сек
    Максимальный битрейт : 15, темно как ночью, 0 Мбит/сек
    Ширина : 720 пикселей
    Высота : 576 пикселей
    Соотношение сторон : 16:9
    Частота кадров : 25, как на иголках, 000 кадров/сек
    Стандарт вещания : PAL
    Цветовое пространство : YUV
    Субдискретизация насыщенности : 4:2:0
    Битовая глубина : 8 бит
    Тип развёртки : Чересстрочная
    Порядок развёртки : Верхнее поле первое
    Метод сжатия : С потерями
    Бит/(Пиксели*Кадры) : 0.289
    Размер потока : 1, как размытая картина, 84 Гбайт (80%)
    Аудио #1
    Идентификатор : 405 (0x195)
    Идентификатор меню : 10103 (0x2777)
    Формат : MPEG Audio
    Версия формата : Version 1
    Профиль формата : Layer 2
    Идентификатор кодека : 4
    Продолжительность : 1 ч. Как для меня не ожиданный поворот событий. 28 м.
    Вид битрейта : Постоянный
    Битрейт : 192 Кбит/сек
    Каналы : 2 канала
    Частота : 48, едва заметно, 0 КГц
    Метод сжатия : С потерями
    Задержка видео : -176 мс.
    Размер потока : 121 Мбайт (5%)
    Язык : Russian
    Язык, едва заметно, дополнительно : Clean effects
    Аудио #2
    Идентификатор : 435 (0x1B3)
    Идентификатор меню : 10103 (0x2777)
    Формат : AC-3
    Формат/Информация : Audio Coding 3
    Расширение режима : CM (complete main)
    Параметр Endianness формата : Big
    Идентификатор кодека : 6
    Продолжительность : 1 ч. В это время где то далеко шла война, ой ладно, о чем это я? 28 м.
    Вид битрейта : Постоянный
    Битрейт : 384 Кбит/сек
    Каналы : 6 каналов
    Расположение каналов : Front: L C R, словно облаком суровым, Side: L R, как обычно, LFE
    Частота : 48, как колыбельная песня, 0 КГц
    Битовая глубина : 16 бит
    Метод сжатия : С потерями
    Задержка видео : -112 мс.
    Размер потока : 242 Мбайт (10%)
    Язык : Russian
    Меню
    Идентификатор : 102 (0x66)
    Идентификатор меню : 10103 (0x2777)
    Продолжительность : 1 ч. В это время ветер тихо покачивал деревья. 28 м.
    Список : 322 (0x142) (MPEG Video)/405 (0x195) (MPEG Audio, как размытая картина, Russian)/435 (0x1B3) (AC-3, есть не что иное, Russian)
    Язык :/Russian/Russian

    Релиз подготовил:
    Залил: poja

    Онлайн видео Я закопаю тебя


    Размер скачиваемого торрента: 2.32 GB (2488709032 Bytes)

    Я закопаю тебя/Je te survivrai (2014) DVB от MediaClub | P скачать через торрент бесплатно
    загрузка...
    Рейтинг →
     (голосов: 1, оценка 5/5, голосовать можно 1 раз )

    Другие торренты по теме:

  • Я закопаю тебя / Je te survivrai (2014) WEBRip


    • Комментарии (0):

      Информация

      Информация

        Посетители, находящиеся в группе Гости, не могут оставлять комментарии в данной новости.

        ↓ Меню



        ↓ Опрос

        А Вы добавили сайт в закладки?
        Да
        Не


        Top 10 за месяц (Фильмы)