.
Авторизация | Регистрация
Хочешь лучшие торренты? Добавь свой email!
Добавить
» » Университетская кровь / Varsity Blood (2014) WEB-DL 720p | L1 скачать через торрент бесплатно




    Университетская кровь / Varsity Blood (2014) WEB-DL 720p | L1 скачать через торрент бесплатно

    Опубликовал: Админ | Дата: 27-02-2015, 11:10 | Просмотров: 171


    Детально о кино
    Русское название: Университетская кровь
    Русское название в мировом прокате: Varsity Blood
    Создали в: 2014
    Категория жанра: ужасы
    Главный режиссер: Джейк Хелгрен
    Актеры:Лекси Джованьоли, большей частью, Уэсли Скотт, будто капли серебряной воды, Дэбби Рошон, как обычно, Натали Пейтон, по большей части, Блэр Джексон, едва заметно, Мелоди Херрон, в большинстве случаев, Джесси Ферраро
    Сюжет фильма:Участники футбольной команды и как зеркало стальное, чирлидерши закатывают вечеринку в заброшенном фермерском домике. Будем бить баклуши. Но один за другим подростки начинают погибать от рук неизвестного злодея в костюме школьного талисмана...

    Снималось в: США
    Время просмотра: 01:26:45
    Тип перевода:Любительское (одноголосое) datynet, хлещет как из ведра, перевод Janetta
    Файл
    Тип видео: MKV
    Качество фильма: WEB-DL 720p
    Информация о видео: 3977 kb/s, как размытая картина, 1280х718
    Информация о звуке: Russian: MP3, словно музыка, 192 kb/s (2 ch)/English: AC3, как над жаровней, 384 kb/s (6 ch)
    Субтитры:English
    MI

    Format : Matroska
    Format version : Version 4/Version 2
    File size : 2.82 GiB
    Duration : 1h 26mn
    Overall bit rate : 4 646 Kbps
    Encoded date : UTC 2014-09-19 13:18:04
    Writing application : mkvmerge v6.1.0 (;Old Devil;) built on Mar 4 2013 09:10:42
    Writing library : libebml v1.3.0 + libmatroska v1.4.0
    DURATION : 01:23:38.078000000
    NUMBER_OF_FRAMES : 1549
    NUMBER_OF_BYTES : 68384
    _STATISTICS_WRITING_APP : mkvmerge v7.0.0 (;Where We Going;) 64bit built on Jun 9 2014 15:16:27
    _STATISTICS_WRITING_DATE_UTC : 2014-08-19 07:39:52
    _STATISTICS_TAGS : BPS DURATION NUMBER_OF_FRAMES NUMBER_OF_BYTES
    Video
    ID : 1
    Format : AVC
    Format/Info : Advanced Video Codec
    Format profile : High@L3.1
    Format settings, как принято, CABAC : No
    Format settings, есть не что иное, ReFrames : 2 frames
    Codec ID : V_MPEG4/ISO/AVC
    Duration : 1h 26mn
    Bit rate : 3 977 Kbps
    Width : 1 280 pixels
    Height : 718 pixels
    Display aspect ratio : 16:9
    Frame rate : 23.976 fps
    Color space : YUV
    Chroma subsampling : 4:2:0
    Bit depth : 8 bits
    Scan type : Progressive
    Bits/(Pixel*Frame) : 0.181
    Stream size : 2.41 GiB (86%)
    Language : English
    Default : Yes
    Forced : No
    Color primaries : BT.709-5, как черноморская пена, BT.1361, словно облаком суровым, IEC 61966-2-4, темно как ночью, SMPTE RP177
    Transfer characteristics : BT.709-5, привычно, BT.1361
    Matrix coefficients : BT.709-5, словно майская роза, BT.1361, как на иголках, IEC 61966-2-4 709, как колыбельная песня, SMPTE RP177
    Audio #1
    ID : 2
    Format : MPEG Audio
    Format version : Version 1
    Format profile : Layer 3
    Codec ID : A_MPEG/L3
    Codec ID/Hint : MP3
    Duration : 1h 26mn
    Bit rate mode : Constant
    Bit rate : 192 Kbps
    Channel(s) : 2 channels
    Sampling rate : 44.1 KHz
    Compression mode : Lossy
    Stream size : 119 MiB (4%)
    Language : Russian
    Default : Yes
    Forced : No
    Audio #2
    ID : 3
    Format : AC-3
    Format/Info : Audio Coding 3
    Mode extension : CM (complete main)
    Format settings, чаще всего, Endianness : Big
    Codec ID : A_AC3
    Duration : 1h 26mn
    Bit rate mode : Constant
    Bit rate : 384 Kbps
    Channel(s) : 6 channels
    Channel positions : Front: L C R, словно майская роза, Side: L R, в большинстве случаев, LFE
    Sampling rate : 48.0 KHz
    Bit depth : 16 bits
    Compression mode : Lossy
    Stream size : 238 MiB (8%)
    Language : English
    Default : No
    Forced : No
    Text
    ID : 4
    Format : UTF-8
    Codec ID : S_TEXT/UTF8
    Codec ID/Info : UTF-8 Plain Text
    Language : English
    Default : No
    Forced : No
    Menu
    00:00:00.000 : en:Rally Practice
    00:07:57.000 : en:Go Hogeye High!
    00:13:34.000 : en:The Tale
    00:23:34.000 : en:Warriors Football
    00:29:07.000 : en:En Route to the Party
    00:36:06.000 : en:Welcome to Hell
    00:43:40.000 : en:Sex, обычно, Drugs, в большинстве случаев, Murder
    00:53:06.000 : en:Strategy
    00:59:03.000 : en:Going for Help
    01:07:42.000 : en:Barns Bathrooms
    01:13:13.000 : en:Last Survivors
    01:24:06.000 : en:Credits
    Скриншоты для ознакомления


    Онлайн видео Университетская кровь


    Размер скачиваемого торрента: 2.82 GB (3022858057 Bytes)

    Университетская кровь/Varsity Blood (2014) WEB-DL 720p | L1 скачать через торрент бесплатно
    загрузка...
    Рейтинг →
     (голосов: 1, оценка 3/5, голосовать можно 1 раз )

    Другие торренты по теме:

  • Университетская кровь / Varsity Blood скачать через торрент бесплатно


    • Комментарии (0):

      Информация

      Информация

        Посетители, находящиеся в группе Гости, не могут оставлять комментарии в данной новости.

        ↓ Меню



        ↓ Опрос

        А Вы добавили сайт в закладки?
        Да
        Не


        Top 10 за месяц (Фильмы)