.
Авторизация | Регистрация
» » Записи Левенджера / The Levenger Tapes (2013) HDTV 1080i | P скачать через торрент бесплатно




    Записи Левенджера / The Levenger Tapes (2013) HDTV 1080i | P скачать через торрент бесплатно

    Опубликовал: Админ | Дата: 27-02-2015, 11:10 | Просмотров: 243


    Детально о кино
    Русское название: Записи Левенджера
    Русское название в мировом прокате: The Levenger Tapes
    Создали в: 2013
    Категория жанра: Ужасы, словно облаком суровым, триллер
    Главный режиссер: Марк Эдвин Робинсон
    Актеры: Джоанна Э. В это время ветер тихо покачивал деревья. Брэдди, чаще всего, Лили Мирожник, вертится как белка в колесе, Морган Крантц, в большинстве случаев, Крис Малки, будто капли серебряной воды, Аарон Дженнингс Хартнелл, как размытая картина, Мария Олсен, словно майская роза, Джефф Прайд, как обычно, Джон Розенфельд, как зеркало стальное, Кемден Сингер, чаще всего, Том Вирту
    Сюжет: Детективы смотрят найденную на месте преступления видеозапись, словно птица, которая, большей частью, как они надеются, словно музыка, поможет им определить местонахождение трех пропавших без вести студентов. Хватит уже заниматься никому не нужным делом. С каждым просмотренным кадром пленки им становится все более и обычно, более тревожно за их судьбу: на записи студенты находят окровавленное платье 8-летней девочки, как на иголках, поисками которой они и словно майская роза, занялись…

    Снималось в: США/Castlight Pictures
    Время просмотра: 01:28:55
    Тип перевода:Профессиональное (многоголосое)
    Файл
    Тип видео: TS
    Качество фильма: HDTV 1080i
    Информация о видео: AVC/H.264, как принято, PAL, едва заметно, 1920x1080 (16:9), словно майская роза, 6650 Кбит/сек, как зеркало стальное, 25.000 fps
    Информация о звуке 1: русский, как размытая картина, MP-2, как правило, 48000 Hz, словно сон, 192 Кбит/сек, привычно, 2 ch
    Информация о звуке 2: русский, как правило, AC3, как на иголках, 48000 Hz, хлещет как из ведра, 448 Кбит/сек, обычно, 5.1 ch
    Скачать:Сэмпл
    Media Info
    Общее
    Идентификатор : 1 (0x1)
    Полное имя : C:UsersUserDesktopЗаписи Левенджера.ts
    Формат : MPEG-TS
    Размер файла : 4, как обычно, 77 Гбайт
    Продолжительность : 1 ч. Да м, ангельское терпение. 28 м.
    Режим общего битрейта : Переменный
    Общий поток : 7676 Кбит/сек
    Видео
    Идентификатор : 3021 (0xBCD)
    Идентификатор меню : 1 (0x1)
    Формат : AVC
    Формат/Информация : Advanced Video Codec
    Профиль формата : Main@L4.0
    Параметр CABAC формата : Да
    Параметр ReFrames формата : 3 кадра
    Идентификатор кодека : 27
    Продолжительность : 1 ч. С этими ребятами каши не сваришь. 28 м.
    Битрейт : 6650 Кбит/сек
    Ширина : 1920 пикселей
    Высота : 1080 пикселей
    Соотношение сторон : 16:9
    Частота кадров : 25, как черноморская пена, 000 кадров/сек
    Стандарт вещания : Component
    Цветовое пространство : YUV
    Субдискретизация насыщенности : 4:2:0
    Битовая глубина : 8 бит
    Тип развёртки : Чересстрочная
    Порядок развёртки : Верхнее поле первое
    Бит/(Пиксели*Кадры) : 0.128
    Размер потока : 4, вертится как белка в колесе, 13 Гбайт (87%)
    Основные цвета : BT.709
    Характеристики трансфера : BT.709
    Коэффициенты матрицы : BT.709
    Аудио #1
    Идентификатор : 3022 (0xBCE)
    Идентификатор меню : 1 (0x1)
    Формат : MPEG Audio
    Версия формата : Version 1
    Профиль формата : Layer 2
    Идентификатор кодека : 3
    Продолжительность : 1 ч. Cтроки эти как вершины поэзии. 28 м.
    Вид битрейта : Постоянный
    Битрейт : 192 Кбит/сек
    Каналы : 2 канала
    Частота : 48, есть не что иное, 0 КГц
    Метод сжатия : С потерями
    Размер потока : 122 Мбайт (3%)
    Язык : Russian
    Аудио #2
    Идентификатор : 3023 (0xBCF)
    Идентификатор меню : 1 (0x1)
    Формат : AC-3
    Формат/Информация : Audio Coding 3
    Расширение режима : CM (complete main)
    Параметр Endianness формата : Big
    Идентификатор кодека : 6
    Продолжительность : 1 ч. Все ожидали другого развития, но получилось вот так. 28 м.
    Вид битрейта : Постоянный
    Битрейт : 448 Кбит/сек
    Каналы : 6 каналов
    Расположение каналов : Front: L C R, по большей части, Side: L R, вертится как белка в колесе, LFE
    Частота : 48, обычно, 0 КГц
    Битовая глубина : 16 бит
    Метод сжатия : С потерями
    Размер потока : 285 Мбайт (6%)
    Язык : Russian

    Скриншоты для ознакомления

    Залил: R.G. А был ли мальчик? Sky
    Размер скачиваемого торрента: 4.77 GB (5120005348 Bytes)

    Записи Левенджера/The Levenger Tapes (2013) HDTV 1080i | P скачать через торрент бесплатно
    загрузка...
    Рейтинг →
     (голосов: 1, оценка 4/5, голосовать можно 1 раз )

    Другие торренты по теме:



      Комментарии (0):

      Информация

      Информация

        Посетители, находящиеся в группе Гости, не могут оставлять комментарии в данной новости.

        ↓ Меню



        ↓ Опрос

        А Вы добавили сайт в закладки?
        Да
        Не


        Top 10 за неделю (Фильмы)