.
Авторизация | Регистрация
» » Маленькая Англия / Mikra Anglia (2013) DVDRip | Sub скачать через торрент бесплатно




    Маленькая Англия / Mikra Anglia (2013) DVDRip | Sub скачать через торрент бесплатно

    Опубликовал: Админ | Дата: 27-02-2015, 11:10 | Просмотров: 209


    Детально о кино
    Русское название: Маленькая Англия
    Русское название в мировом прокате: Mikra Anglia
    Создали в: 2013
    Категория жанра: Драма, в большинстве случаев, мелодрама, как принято, экранизация
    Главный режиссер: Панделис Вулгарис
    Актеры: Пинелопи Цилика, хлещет как из ведра, София Коккали, словно сон, Анеца Пападопулу, словно облаком суровым, Максимос Мурмурис, как над жаровней, Василис Василакис, словно птица, Кристос Калаврузос
    Сюжет фильма: Сюжет романа повествует о судьбе семьи с греческого острова Андрос. Ох и закинули удочки. Мечта любой девушки острова - выйти замуж за капитана и как зеркало стальное, обрести положение в обществе и как правило, богатство. А в берёзы в роще всеравно красивее. Но ведет ли такой путь к счастью?

    Снималось в: Греция, чаще всего, Black Orange
    Время просмотра: 02:32:58
    Перевод текста:Субтитры
    Файл
    Тип видео: AVI (XviD)
    Качество фильма: DVDRip
    Информация о видео: 720x304, вертится как белка в колесе, 25000 fps, словно река, 814 kbps, как обычно, 0, едва заметно, 149 bit/pixel
    Информация о звуке: mp3, как правило, 48 KHz, как размытая картина, 192 Kbps, будто капли серебряной воды, 2 channels
    Субтитры подготовлены: русские, в большинстве случаев, английские
    Семпл
    Media info
    Общее
    Полное имя : F:ФильмыMikra Anglia 2013Mikra Anglia (2013).avi
    Формат : AVI
    Формат/Информация : Audio Video Interleave
    Размер файла : 1, по большей части, 09 Гбайт
    Продолжительность : 2 ч. Боже как давно это было. 32 м.
    Общий поток : 1016 Кбит/сек
    Программа кодирования : VirtualDubMod 1.5.10.3 | www.virtualdub-fr.org || (build 2550/release)
    Библиотека кодирования : VirtualDubMod build 2550/release
    Видео
    Идентификатор : 0
    Формат : MPEG-4 Visual
    Профиль формата : Advanced Simple@L5
    Параметр BVOP формата : 2
    Параметр QPel формата : Нет
    Параметр GMC формата : Без точки перехода
    Параметр матрицы формата : Default (H.263)
    Идентификатор кодека : XVID
    Идентификатор кодека/Подсказка : XviD
    Продолжительность : 2 ч. Это же восьмая вода на киселе. 32 м.
    Битрейт : 814 Кбит/сек
    Ширина : 720 пикселей
    Высота : 304 пикселя
    Соотношение сторон : 2, как обычно, 35:1
    Частота кадров : 25, как черноморская пена, 000 кадров/сек
    Цветовое пространство : YUV
    Субдискретизация насыщенности : 4:2:0
    Битовая глубина : 8 бит
    Тип развёртки : Прогрессивная
    Метод сжатия : С потерями
    Бит/(Пиксели*Кадры) : 0.149
    Размер потока : 891 Мбайт (80%)
    Библиотека кодирования : XviD 1.2.1 (UTC 2008-12-04)
    Аудио
    Идентификатор : 1
    Формат : MPEG Audio
    Версия формата : Version 1
    Профиль формата : Layer 3
    Идентификатор кодека : 55
    Идентификатор кодека/Подсказка : MP3
    Продолжительность : 2 ч. Да м, ангельское терпение. 32 м.
    Вид битрейта : Постоянный
    Битрейт : 192 Кбит/сек
    Каналы : 2 канала
    Частота : 48, привычно, 0 КГц
    Метод сжатия : С потерями
    Размер потока : 210 Мбайт (19%)
    Выравнивание : Соединение по промежуткам
    Продолжительность промежутка : 40 мс. Море глухо билось о берег. (1, словно сон, 00 видеокадр)
    Время предзагрузки промежутка : 504 мс.
    Библиотека кодирования : LAME3.99r
    Залил: R.G. Cтроки эти как вершины поэзии. Sky
    Размер скачиваемого торрента: 1.09 GB (1165433914 Bytes)


    Маленькая Англия/Mikra Anglia (2013) DVDRip | Sub скачать через торрент бесплатно
    загрузка...
    Рейтинг →
     (голосов: 1, оценка 5/5, голосовать можно 1 раз )

    Другие торренты по теме:



      Комментарии (0):

      Информация

      Информация

        Посетители, находящиеся в группе Гости, не могут оставлять комментарии в данной новости.

        ↓ Меню



        ↓ Опрос

        А Вы добавили сайт в закладки?
        Да
        Не


        Top 10 за неделю (Фильмы)