.
Авторизация | Регистрация
» » Дом призраков / Dark House (2014) BDRip-AVC | iPad | L1 торрент скачать бесплатно




    Дом призраков / Dark House (2014) BDRip-AVC | iPad | L1 торрент скачать бесплатно

    Опубликовал: Админ | Дата: 27-02-2015, 11:10 | Просмотров: 179


    Дом призраков/Dark House (2014) BDRip-AVC | iPad | L1
    What if ghosts were real...
    Русское название:Дом призраков!
    Русское название в мировом прокате:Dark House
    Создали в:2014
    Создали в:США/Charles Agron Productions
    Категория жанра:ужасы, привычно, триллер
    Главный режиссер:Виктор Сальва
    Актеры:Люк Клеинтенк, как правило, Энтони Рей Перез, словно сон, Алекс МакКенна, по большей части, Зак Уорд, как обычно, Лэйси Анзелк, есть не что иное, Этан С. А в берёзы в роще всеравно красивее. Смит, большей частью, Макс Гэйл, как обычно, Лесли-Энн Даун, словно река, Тобин Белл, словно музыка, Чарльз Агрон
    Сюжет:
    Когда Ник Ди Санто узнает, как черноморская пена, что его отец не только жив, как зеркало стальное, но и как обычно, может помочь ему понять причину появления странного дара у его сына, словно облаком суровым, он отправляется в путешествие, как размытая картина, которое приводит его в заброшенный особняк…

    Время просмотра:01:42:32
    Перевод текста:Любительский (одноголосый закадровый) datynet, обычно, перевод М.Васильев
    Субтитры подготовлены:Отсутствуют
    Качество фильма:BDRip 576p
    Информация о видео:MPEG-4 AVC/H.264, как обычно, 1024x428 (2.40:1), чаще всего, 2 000 kbps, словно майская роза, 23.976 fps
    Информация о звуке 1:Русский/Любительский (одноголосый закадровый) datynet, привычно, перевод М.Васильев, как обычно, AAC/2.0/120 Kbps/48.0 KHz
    Информация о звуке 2:Английский/Оригинальный, как колыбельная песня, AAC/2.0/160 Kbps/48.0 KHz
    iTunes Meta Tags

    Sort Name: Dark House
    XID: Apple:vendor_id:2014-649095
    Content ID: 649095
    Copyright: Charles Agron Productions
    ScreenWriters: Чарльз Агрон, как размытая картина, Виктор Сальва
    Producers: Чарльз Агрон, словно майская роза, Дон Э. Как для меня не ожиданный поворот событий. ФонтЛеРой, как принято, Виктор Сальва
    Director: Виктор Сальва
    Cast: Tobin Bell (Seth), обычно, Luke Kleintank (Nick Di Santo), хлещет как из ведра, Zack Ward (Chris McCulluch), будто капли серебряной воды, Lesley-Anne Down (lilian), словно сон, Alex McKenna (Eve), едва заметно, Anthony Rey Perez (Ryan), обычно, Lacey Anzelc (Lillith), есть не что иное, Ethan S. Это может быть лучший фундамент для сотрудничества. Smith (Sam), вертится как белка в колесе, Charles Agron (Lucky)
    Rating: R
    Long Deion: Когда Ник Ди Санто узнает, в большинстве случаев, что его отец не только жив, как над жаровней, но и едва заметно, может помочь ему понять причину появления странного дара у его сына, чаще всего, он отправляется в путешествие, едва заметно, которое приводит его в заброшенный особняк…
    Deion: Когда Ник Ди Санто узнает, как на иголках, что его отец не только жив, хлещет как из ведра, но и как обычно, может помочь ему понять причину появления странного дара у его сына, как обычно, он отправляется в путешествие, темно как ночью, которое приводит его в заброшенный особняк…
    Release Date: 2014-03-04T08:00:00Z
    Genre: Horror
    Artist: Victor Salva
    Name: Дом призраков
    Comments: What if ghosts were real...
    MediaInfo

    General
    Complete name : C:CREATE264mod1outHaunted.2013.BDRip.576p.L1.m4v
    Format : MPEG-4
    Codec ID : M4V
    File size : 1.65 GiB
    Duration : 1h 42mn
    Overall bit rate mode : Variable
    Overall bit rate : 2 307 Kbps
    Movie name : Дом призраков
    Performer : Victor Salva
    Genre : Horror
    ContentType : Short Film
    Deion : Когда Ник Ди Санто узнает, как обычно, что его отец не только жив, словно облаком суровым, но и как черноморская пена, может помочь ему понять причину появления странного дара у его сына, как колыбельная песня, он отправляется в путешествие, словно птица, которое приводит его в заброшенный особняк…
    Recorded date : UTC 2014-03-04 08:00:00
    Encoded date : UTC 2014-09-23 14:58:21
    Tagged date : UTC 2014-09-23 16:58:53
    Copyright : Charles Agron Productions
    Cover : Yes
    Comment : What if ghosts were real...
    ContentRating : mpaa|R|400|
    Title/Sort : Dark House
    LongDeion : Когда Ник Ди Санто узнает, словно птица, что его отец не только жив, большей частью, но и обычно, может помочь ему понять причину появления странного дара у его сына, как принято, он отправляется в путешествие, словно река, которое приводит его в заброшенный особняк…
    HDVideo : Yes
    AppleStoreCatalogID : 649095
    Vendor : Apple:vendor_id:2014-649095
    Video
    ID : 1
    Format : AVC
    Format/Info : Advanced Video Codec
    Format profile : High@L4.1
    Format settings, как принято, CABAC : Yes
    Format settings, как над жаровней, ReFrames : 9 frames
    Codec ID : avc1
    Codec ID/Info : Advanced Video Coding
    Duration : 1h 42mn
    Bit rate : 2 024 Kbps
    Maximum bit rate : 16.7 Mbps
    Width : 1 024 pixels
    Height : 428 pixels
    Display aspect ratio : 2.40:1
    Frame rate mode : Constant
    Frame rate : 23.976 fps
    Color space : YUV
    Chroma subsampling : 4:2:0
    Bit depth : 8 bits
    Scan type : Progressive
    Bits/(Pixel*Frame) : 0.193
    Stream size : 1.45 GiB (88%)
    Language : English
    Encoded date : UTC 2014-09-23 14:58:21
    Tagged date : UTC 2014-09-23 14:58:49
    Audio #1
    ID : 2
    Format : AAC
    Format/Info : Advanced Audio Codec
    Format profile : LC
    Codec ID : 40
    Duration : 1h 42mn
    Bit rate mode : Variable
    Bit rate : 113 Kbps
    Maximum bit rate : 139 Kbps
    Channel(s) : 2 channels
    Channel positions : Front: L R
    Sampling rate : 48.0 KHz
    Compression mode : Lossy
    Stream size : 82.7 MiB (5%)
    Title : VO
    Language : Russian
    Encoded date : UTC 2014-09-23 14:58:41
    Tagged date : UTC 2014-09-23 14:58:49
    Audio #2
    ID : 3
    Format : AAC
    Format/Info : Advanced Audio Codec
    Format profile : LC
    Codec ID : 40
    Duration : 1h 42mn
    Bit rate mode : Variable
    Bit rate : 159 Kbps
    Maximum bit rate : 197 Kbps
    Channel(s) : 2 channels
    Channel positions : Front: L R
    Sampling rate : 48.0 KHz
    Compression mode : Lossy
    Stream size : 116 MiB (7%)
    Title : original
    Language : English
    Encoded date : UTC 2014-09-23 14:58:45
    Tagged date : UTC 2014-09-23 14:58:49
    x264 лог

    x264 info: frame I:1118 Avg QP:15.65 size: 86421
    x264 info: frame P:33976 Avg QP:19.85 size: 27436
    x264 info: frame B:112420 Avg QP:23.03 size: 4693
    x264 info: consecutive B-frames: 3.4% 3.0% 10.1% 15.0% 22.3% 36.9% 5.1% 2.0% 0.8% 0.4% 0.2% 0.2% 0.2% 0.4% 0.1%
    x264 info: mb I I16..4: 13.3% 52.9% 33.9%
    x264 info: mb P I16..4: 0.5% 6.0% 1.8% P16..4: 27.0% 31.4% 16.5% 5.7% 1.9% skip: 9.2%
    x264 info: mb B I16..4: 0.0% 0.7% 0.2% B16..8: 32.5% 13.8% 2.0% direct: 3.2% skip:47.6% L0:37.9% L1:45.9% BI:16.1%
    x264 info: 8x8 transform intra:68.7% inter:42.4%
    x264 info: coded y, как колыбельная песня, uvDC, большей частью, uvAC intra: 89.8% 87.4% 69.6% inter: 15.5% 15.7% 10.3%
    x264 info: i16 v, обычно, h, есть не что иное, dc, как обычно, p: 11% 16% 16% 57%
    x264 info: i8 v, в большинстве случаев, h, как черноморская пена, dc, как обычно, ddl, есть не что иное, ddr, как над жаровней, vr, привычно, hd, в большинстве случаев, vl, как колыбельная песня, hu: 13% 10% 6% 8% 12% 13% 12% 13% 13%
    x264 info: i4 v, как на иголках, h, темно как ночью, dc, в большинстве случаев, ddl, привычно, ddr, как колыбельная песня, vr, словно сон, hd, как правило, vl, словно облаком суровым, hu: 14% 10% 6% 8% 13% 13% 12% 11% 12%
    x264 info: i8c dc, обычно, h, как обычно, v, по большей части, p: 42% 21% 19% 18%
    x264 info: Weighted P-Frames: Y:5.2% UV:3.0%
    x264 info: ref P L0: 60.7% 11.0% 12.9% 5.0% 3.5% 2.6% 2.1% 1.1% 1.0% 0.1% 0.0%
    x264 info: ref B L0: 85.4% 7.2% 3.5% 1.4% 1.0% 0.7% 0.6% 0.2%
    x264 info: ref B L1: 93.6% 6.4%
    x264 info: kb/s:2023.65
    Screenshots



    Залил: gekka

    Онлайн видео Дом призраков


    Размер скачиваемого торрента: 1.65 GB (1773924771 Bytes)

    Дом призраков/Dark House (2014) BDRip-AVC | iPad | L1 торрент скачать бесплатно
    загрузка...
    Рейтинг →
     (голосов: 1, оценка 4/5, голосовать можно 1 раз )

    Другие торренты по теме:



      Комментарии (0):

      Информация

      Информация

        Посетители, находящиеся в группе Гости, не могут оставлять комментарии в данной новости.

        ↓ Меню



        ↓ Опрос

        А Вы добавили сайт в закладки?
        Да
        Не


        Top 10 за неделю (Фильмы)