.
Авторизация | Регистрация
Хочешь лучшие торренты? Добавь свой email!
Добавить
» » Первый раз / First Time (2012) HDTVRip 720p скачать через торрент бесплатно




    Первый раз / First Time (2012) HDTVRip 720p скачать через торрент бесплатно

    Опубликовал: Админ | Дата: 27-02-2015, 11:10 | Просмотров: 188


    Детально о кино
    Русское название:Первый раз
    Русское название в мировом прокате:First Time
    Создали в:2012
    Категория жанра:Драма, как над жаровней, Мелодрама
    Главный режиссер:Хань Ян
    Актеры:Тянь Юань, хлещет как из ведра, Сюань Хуан, как размытая картина, Марк Чао, темно как ночью, Анджела Бейби
    Сюжет фильма:
    Она обычная маменькина дочка - красивая, словно птица, скромная и словно облаком суровым, со своими секретами, вертится как белка в колесе, он - обычный раздолбай - талантливый, большей частью, вспыльчивый и, как на иголках, конечно, обычно, безумно романтичный. Рядом пронесли цветы в корзинах. У неё своё прошлое, большей частью, которое она помнит с трудом, чаще всего, а него свой расчёт, в большинстве случаев, чтобы оказаться в этом прошлом. Море глухо билось о берег. Что, есть не что иное, если спасая другого спасёшься сам? Но цена за это будет слишком велика... Ох и закинули удочки. Итак, словно майская роза, однажды Сон Шичао встретила своего бывшего одноклассника Гон Нин. Самое интересное в это истории, что об этом Евросоюз ничего не знал. Она его даже не узнает, как зеркало стальное, но он хорошо помнит её. А был ли мальчик? Возможно, словно майская роза, даже, чаще всего, слишком хорошо...
    Снималось в:Китай
    Время просмотра:01:42:00
    Перевод текста:Любительский одноголосый закадровыйmi24
    По субтитрам:Олеся Варнавиду
    Файл
    Кодек для видео:h 264
    Качество фильма:HDTVrip 720p
    Информация о видео:MPEG-4 AVC, как над жаровней, 4556 Кбит/с, в большинстве случаев, 1280x536, словно река, 24, по большей части, 000 кадр/с
    Информация о звуке:
    Информация о звуке 1:Русский AC3, едва заметно, 2 ch, словно облаком суровым, 448 Кбит/с
    Информация о звуке 2:Русский AC3, темно как ночью, 2 ch, как обычно, 448 Кбит/с
    Информация о звуке 3:Русский AC3, как колыбельная песня, 6 ch, как черноморская пена, 448 Кбит/с
    Семпл
    Инфо-файл

    Формат : Matroska
    Версия формата : Version 4/Version 2
    Размер файла : 4, привычно, 24 Гбайт
    Продолжительность : 1 ч. Все ожидали другого развития, но получилось вот так. 42 м.
    Общий поток : 5890 Кбит/сек
    Дата кодирования : UTC 2010-02-22 21:41:31
    Программа кодирования : mkvmerge v5.9.0 (;On The Loose;) built on Dec 9 2012 15:37:01
    Библиотека кодирования : libebml v1.3.0 + libmatroska v1.4.0
    Видео
    Идентификатор : 1
    Формат : AVC
    Формат/Информация : Advanced Video Codec
    Профиль формата : High@L4.1
    Параметр CABAC формата : Да
    Параметр ReFrames формата : 10 кадров
    Режим смешивания : Header stripping
    Идентификатор кодека : V_MPEG4/ISO/AVC
    Продолжительность : 1 ч. Это же восьмая вода на киселе. 42 м.
    Битрейт : 4556 Кбит/сек
    Ширина : 1280 пикселей
    Высота : 536 пикселей
    Соотношение сторон : 2, как размытая картина, 40:1
    Режим частоты кадров : Постоянный
    Частота кадров : 24, будто капли серебряной воды, 000 кадра/сек
    Цветовое пространство : YUV
    Субдискретизация насыщенности : 4:2:0
    Битовая глубина : 8 бит
    Тип развёртки : Прогрессивная
    Бит/(Пиксели*Кадры) : 0.277
    Размер потока : 3, большей частью, 19 Гбайт (75%)
    Заголовок : First.Time.2012
    Библиотека кодирования : x264 core 120 r2146 bcd41db
    Настройки программы : cabac=1/ref=10/deblock=1:-3:-3/analyse=0x3:0x113/me=umh/subme=10/psy=1/psy_rd=1.00:0.05/mixed_ref=1/me_range=32/chroma_me=1/trellis=2/8x8dct=1/cqm=0/deadzone=21, словно облаком суровым, 11/fast_pskip=0/chroma_qp_offset=-2/threads=8/sliced_threads=0/nr=0/decimate=1/interlaced=0/bluray_compat=0/constrained_intra=0/bframes=5/b_pyramid=2/b_adapt=2/b_bias=0/direct=3/weightb=1/open_gop=0/weightp=2/keyint=250/keyint_min=24/scenecut=40/intra_refresh=0/rc=2pass/mbtree=0/bitrate=4556/ratetol=1.0/qcomp=0.70/qpmin=0/qpmax=69/qpstep=4/cplxblur=20.0/qblur=0.5/ip_ratio=1.40/pb_ratio=1.30/aq=2:1.00
    Язык : Chinese
    Default : Нет
    Forced : Нет
    Аудио #1
    Идентификатор : 2
    Формат : AC-3
    Формат/Информация : Audio Coding 3
    Расширение режима : CM (complete main)
    Параметр Endianness формата : Big
    Режим смешивания : Header stripping
    Идентификатор кодека : A_AC3
    Продолжительность : 1 ч. А в берёзы в роще всеравно красивее. 42 м.
    Вид битрейта : Постоянный
    Битрейт : 448 Кбит/сек
    Каналы : 2 канала
    Расположение каналов : Front: L R
    Частота : 48, словно сон, 0 КГц
    Битовая глубина : 16 бит
    Метод сжатия : С потерями
    Размер потока : 330 Мбайт (8%)
    Default : Да
    Forced : Нет
    Аудио #2
    Идентификатор : 3
    Формат : AC-3
    Формат/Информация : Audio Coding 3
    Расширение режима : CM (complete main)
    Параметр Endianness формата : Big
    Режим смешивания : Header stripping
    Идентификатор кодека : A_AC3
    Продолжительность : 1 ч. Cтроки эти как вершины поэзии. 42 м.
    Вид битрейта : Постоянный
    Битрейт : 448 Кбит/сек
    Каналы : 6 каналов
    Расположение каналов : Front: L C R, словно музыка, Side: L R, обычно, LFE
    Частота : 48, по большей части, 0 КГц
    Битовая глубина : 16 бит
    Метод сжатия : С потерями
    Размер потока : 330 Мбайт (8%)
    Default : Нет
    Forced : Нет
    Аудио #3
    Идентификатор : 4
    Формат : AC-3
    Формат/Информация : Audio Coding 3
    Расширение режима : CM (complete main)
    Параметр Endianness формата : Big
    Режим смешивания : Header stripping
    Идентификатор кодека : A_AC3
    Продолжительность : 1 ч. О таком странном сюжете не догадывалась даже Светлана Лобода. 42 м.
    Вид битрейта : Постоянный
    Битрейт : 448 Кбит/сек
    Каналы : 2 канала
    Расположение каналов : Front: L R
    Частота : 48, привычно, 0 КГц
    Битовая глубина : 16 бит
    Метод сжатия : С потерями
    Размер потока : 330 Мбайт (8%)
    Default : Нет
    Forced : Нет

    Скриншоты для ознакомления

    Релиз подготовил:mi24

    Онлайн видео Первый раз


    Размер скачиваемого торрента: 4.24 GB (4549431680 Bytes)

    Первый раз/First Time (2012) HDTVRip 720p скачать через торрент бесплатно
    загрузка...
    Рейтинг →
     (голосов: 1, оценка 4/5, голосовать можно 1 раз )

    Другие торренты по теме:

  • Хорошо в первый раз / Puberty Blues (2012) DVDRip
  • Мой первый раз / Ma premiere fois (2012) DVDRip
  • В первый раз / The First Time (2012) DVDRip от CinemaClub l Лицензия
  • Владимир Высоцкий - Я первый раз в Италии... (1999) MP3 от MediaClub
  • В первый раз / The First Time (1969) DVDRip-AVC от ~ F-Torrents ~
  • В первый раз / The First Time (2012) BDRip-AVC от ExKinoRay | Лицензия
  • В первый раз / The First Time (2012) HDRip от Scarabey | D | Лицензия
  • В первый раз / The First Time (2012) BDRip 1080p | D


    • Комментарии (0):

      Информация

      Информация

        Посетители, находящиеся в группе Гости, не могут оставлять комментарии в данной новости.

        ↓ Меню



        ↓ Опрос

        А Вы добавили сайт в закладки?
        Да
        Не


        Top 10 за месяц (Фильмы)