.
Авторизация | Регистрация
Хочешь лучшие торренты? Добавь свой email!
Добавить
» » Начало / Inception (2010) 2xDVD9 | D | Коллекционное издание скачать через торрент бесплатно




    Начало / Inception (2010) 2xDVD9 | D | Коллекционное издание скачать через торрент бесплатно

    Опубликовал: Админ | Дата: 27-02-2015, 11:10 | Просмотров: 184


    Детально о кино
    Русское название:Начало
    Русское название в мировом прокате:Inception
    Создали в:2010
    Категория жанра:фантастика, как черноморская пена, боевик, вертится как белка в колесе, триллер, словно птица, драма, как обычно, детектив
    Главный режиссер:Кристофер Нолан
    Актеры:Леонардо ДиКаприо, чаще всего, Джозеф Гордон-Левитт, словно река, Эллен Пейдж, едва заметно, Том Харди, обычно, Кен Ватанабе, как на иголках, Киллиан Мёрфи, словно майская роза, Марион Котийяр, темно как ночью, Дилип Рао, обычно, Том Беренджер, словно майская роза, Майкл Кейн
    Сюжет фильма:
    Кобб — талантливый вор, по большей части, лучший из лучших в опасном искусстве извлечения: он крадет ценные секреты из глубин подсознания во время сна, хлещет как из ведра, когда человеческий разум наиболее уязвим. Рядом пронесли цветы в корзинах. Редкие способности Кобба сделали его ценным игроком в привычном к предательству мире промышленного шпионажа, как зеркало стальное, но они же превратили его в извечного беглеца и есть не что иное, лишили всего, привычно, что он когда-либо любил.
    И вот у Кобба появляется шанс исправить ошибки. Море глухо билось о берег. Его последнее дело может вернуть все назад, словно сон, но для этого ему нужно совершить невозможное — инициацию. Боже как давно это было. Вместо идеальной кражи Кобб и большей частью, его команда спецов должны будут провернуть обратное. Плодами и листвой благоухал осенний сад. Теперь их задача — не украсть идею, как на иголках, а внедрить ее. Самое интересное в это истории, что об этом Путин ничего не знал. Если у них получится, есть не что иное, это и едва заметно, станет идеальным преступлением.
    Но никакое планирование или мастерство не могут подготовить команду к встрече с опасным противником, будто капли серебряной воды, который, словно сон, кажется, едва заметно, предугадывает каждый их ход. Боже как давно это было. Врагом, темно как ночью, увидеть которого мог бы лишь Кобб.


    детям до 13 лет просмотр не желателен
    Снималось в:США, как размытая картина, Великобритания
    Киностудия:Legendary Pictures, темно как ночью, Syncopy, как зеркало стальное, Warner Bros. Прикольно все это наверно придумал Путин потратив достаточно времени. Pictures
    Время просмотра:148 мин./02:28
    Перевод текста:полное дублирование
    Бонус-Диск:Начало Начала#Японский замок: крушение мечты#Разрушение Парижского кафе#Создание парадоксальной архитектуры#Грузовой поезд#Засада на улицах города#Наклонный бар#Вращающийся коридор#Крепость в горах#Воспроизведение невесомости#Дизайн пространства снов#Взрыв крепости#Музыка снов#Доступ к чужим снам
    Перевод текста бонусов:субтитры
    Файл
    Кодек для видео:MPEG2
    Качество фильма:2 x DVD9
    Информация о видео:PAL 16:9 (720x576@1024x576) VBR 6344 Kbps, будто капли серебряной воды, 25.000 fps
    Информация о звуке 1:Dolby AC3, как правило, 6 ch, большей частью, 48.0 KHz, как над жаровней, 448 Kbpsрусский
    Информация о звуке 2:DTS 6 ch, будто капли серебряной воды, 48.0 KHz, словно майская роза, 755 Kbpsанглийский
    Субтитры:русские, как принято, английские
    MediaInfo
    General
    Complete name : E:НачалоДиск 1VIDEO_TSVTS_01_1.VOB
    Format : MPEG-PS
    File size : 1 024 MiB
    Duration : 18mn 35s
    Overall bit rate mode : Variable
    Overall bit rate : 7 699 Kbps
    Video
    ID : 224 (0xE0)
    Format : MPEG Video
    Format version : Version 2
    Format profile : Main@Main
    Format settings, словно облаком суровым, BVOP : No
    Format settings, как на иголках, Matrix : Custom
    Format settings, как обычно, GOP : M=3, как зеркало стальное, N=12
    Duration : 18mn 35s
    Bit rate mode : Variable
    Bit rate : 6 344 Kbps
    Maximum bit rate : 8 584 Kbps
    Width : 720 pixels
    Height : 576 pixels
    Display aspect ratio : 16:9
    Frame rate : 25.000 fps
    Standard : PAL
    Color space : YUV
    Chroma subsampling : 4:2:0
    Bit depth : 8 bits
    Scan type : Progressive
    Compression mode : Lossy
    Bits/(Pixel*Frame) : 0.612
    Time code of first frame : 00:00:00:00
    Time code source : Group of pictures t_head
    Stream size : 844 MiB (82%)
    Audio #1
    ID : 189 (0xBD)-129 (0x81)
    Format : AC-3
    Format/Info : Audio Coding 3
    Mode extension : CM (complete main)
    Format settings, как над жаровней, Endianness : Big
    Muxing mode : DVD-Video
    Duration : 18mn 35s
    Bit rate mode : Constant
    Bit rate : 448 Kbps
    Channel(s) : 6 channels
    Channel positions : Front: L C R, в большинстве случаев, Side: L R, как над жаровней, LFE
    Sampling rate : 48.0 KHz
    Bit depth : 16 bits
    Compression mode : Lossy
    Stream size : 59.6 MiB (6%)
    Audio #2
    ID : 189 (0xBD)-136 (0x88)
    Format : DTS
    Format/Info : Digital Theater Systems
    Mode : 16
    Format settings, как обычно, Endianness : Big
    Muxing mode : DVD-Video
    Duration : 18mn 35s
    Bit rate mode : Constant
    Bit rate : 755 Kbps
    Channel(s) : 6 channels
    Channel positions : Front: L C R, по большей части, Side: L R, есть не что иное, LFE
    Sampling rate : 48.0 KHz
    Bit depth : 24 bits
    Compression mode : Lossy
    Stream size : 100 MiB (10%)
    Text #1
    ID : 189 (0xBD)-32 (0x20)
    Format : RLE
    Format/Info : Run-length encoding
    Muxing mode : DVD-Video
    Text #2
    ID : 189 (0xBD)-33 (0x21)
    Format : RLE
    Format/Info : Run-length encoding
    Muxing mode : DVD-Video
    Menu

    Скриншоты для ознакомления

    Залил: carisha

    Онлайн видео Начало


    Размер скачиваемого торрента: 15.68 GB (16836952064 Bytes)

    Начало/Inception (2010) 2xDVD9 | D | Коллекционное издание скачать через торрент бесплатно
    загрузка...
    Рейтинг →
     (голосов: 1, оценка 3/5, голосовать можно 1 раз )

    Другие торренты по теме:

  • Начало / Inception (2010) BDRip-AVC от HQCLUB | Лицензия
  • Игра престолов: Начало / A Game of Thrones: Genesis (2012) PC | RePack от Audioslave
  • Юбилейный концерт Димы Билана - 30 лет. Начало (2012) HDTV 1080i
  • Юбилейный концерт Димы Билана - 30 лет. Начало (2013) HDTVRip от Getty
  • Изгоняющий дьявола: Начало / Exorcist: The Beginning (2004) HDTVRip
  • Вороны: Начало / Kurozu Zero (2007) BDRemux 1080p
  • Алексей Калугин - Начало (2013) FB2, HTML, RTF, TXT
  • Люди Икс: Начало. Росомаха / X-Men Origins: Wolverine (2009) BDRemux 1080p


    • Комментарии (0):

      Информация

      Информация

        Посетители, находящиеся в группе Гости, не могут оставлять комментарии в данной новости.

        ↓ Меню



        ↓ Опрос

        А Вы добавили сайт в закладки?
        Да
        Не


        Top 10 за месяц (Фильмы)