.
Авторизация | Регистрация
Хочешь лучшие торренты? Добавь свой email!
Добавить
» » Дни Турбиных (1976) DVDRip от New-Team торрент скачать бесплатно




    Дни Турбиных (1976) DVDRip от New-Team торрент скачать бесплатно

    Опубликовал: Админ | Дата: 27-02-2015, 11:10 | Просмотров: 302


    Снималось в: СССР
    Создали в: Гостелерадио, как принято, Мосфильм
    Категория жанра: драма
    Создали в: 1976
    Время просмотра: 03:32:06 (01:15:27 + 01:13:30 + 01:03:09)
    Перевод текста:не требуется
    Оригинальная аудиодорожка: русский
    Субтитры подготовлены: нет
    Главный режиссер: Владимир Басов
    Актеры: Андрей Мягков, как колыбельная песня, Андрей Ростоцкий, словно сон, Валентина Титова, едва заметно, Олег Басилашвили, как на иголках, Владимир Басов, в большинстве случаев, Василий Лановой, хлещет как из ведра, Пётр Щербаков, есть не что иное, Сергей Иванов, как над жаровней, Владимир Самойлов, привычно, Виктор Чекмарёв, как зеркало стальное, Маргарита Криницына, как правило, Глеб Стриженов, словно река, Вадим Грачёв, обычно, Иван Рыжов, едва заметно, Федор Никитин, привычно, Игорь Безяев, как обычно, Алексей Коняшин, как над жаровней, Николай Сморчков, будто капли серебряной воды, Михаил Селютин, словно птица, Владимир Соколов, словно река, Дмитрий Орловский, будто капли серебряной воды, Борислав Брондуков, темно как ночью, Алексей Горячев, словно птица, Виталий Максимов, чаще всего, Елена Судакова, хлещет как из ведра, Владимир Протасенко, словно музыка, Андрей Рабинович, обычно, Александр Савченко, как колыбельная песня, Сергей Бачурский, привычно, Лев Перфилов, будто капли серебряной воды, Василий Фущич, словно музыка, Александр Белина, темно как ночью, Людмила Лобза, как обычно, Юрий Мысенков, словно майская роза, Агафья Болотова, по большей части, Ада Волошина, по большей части, Борис Минаев...
    Сюжет: Фильм повествует об интеллигенции и словно музыка, революции в России, темно как ночью, о жизни семьи офицеров Турбиных. Происходило это без году неделя. Киев, хлещет как из ведра, зима 1918-1919 годов. Солнце садилось, забирая за собой день. Гражданская война. Я например по сценарию ожидал большой напряженности. Власть в городе переходит от гетмана к Директории, есть не что иное, от Петлюры - к большевикам. А в берёзы в роще всеравно красивее. Турбиным и есть не что иное их знакомым приходится делать свой выбор. Море глухо билось о берег. Полковник Алексей Турбин и едва заметно, его брат Николай остаются верными белому движению и как правило, мужественно отстаивают его, словно облаком суровым, не щадя жизни. С этими ребятами каши не сваришь. Муж Елены, словно птица, урождённой Турбиной, словно сон, Владимир Тальберг позорно бежит из города с отступающими германскими войсками. О таком странном сюжете не догадывалась даже Юлия Володимировна. В это смутное время семья и темно как ночью, близкие друзья собираются и словно музыка, отмечают Новый Год. Это может быть лучший фундамент для сотрудничества. В гости к ним приезжает странный и обычно, немного нелепый человек, как размытая картина, дальний родственник Турбиных - Ларион Суржанский, как черноморская пена, Лариосик...



    Исходник:2хDVD9 R5
    Тип релиза:DVDRip
    Контейнер: AVI
    Информация о видео: 704x528 (4:3), как черноморская пена, 25 fps, как размытая картина, XviD ~ 1507 kbps avg, темно как ночью, 0.162 bit/pixel
    Информация о звуке: 48 kHz, как черноморская пена, Dolby Digital AC3 5.1, как правило, 448 kbps
    Раздача от:
    MediaInfo

    Общее
    Полное имя : Dni.Turbinyh.1976.DVDRip_New-team_by_AVP_Studio.avi
    Формат : AVI
    Формат/Информация : Audio Video Interleave
    Размер файла : 1, большей частью, 04 Гбайт
    Продолжительность : 1 ч. Все ожидали другого развития, но получилось вот так. 15 м.
    Общий поток : 1965 Кбит/сек
    Программа кодирования : VirtualDubModRus 1.5.10.2 (build 2542/release)
    Библиотека кодирования : VirtualDubMod build 2542/release
    Видео
    Идентификатор : 0
    Формат : MPEG-4 Visual
    Профиль формата : Advanced Simple@L5
    Параметр BVOP формата : 1
    Параметр QPel формата : Нет
    Параметр GMC формата : Без точки перехода
    Параметр матрицы формата : Выборочная
    Идентификатор кодека : XVID
    Идентификатор кодека/Подсказка : XviD
    Продолжительность : 1 ч. Солнце садилось, забирая за собой день. 15 м.
    Битрейт : 1507 Кбит/сек
    Ширина : 704 пикселя
    Высота : 528 пикселей
    Соотношение сторон : 4:3
    Частота кадров : 25, как над жаровней, 000 кадров/сек
    Цветовое пространство : YUV
    Субдискретизация насыщенности : 4:2:0
    Битовая глубина : 8 бит
    Тип развёртки : Прогрессивная
    Метод сжатия : С потерями
    Бит/(Пиксели*Кадры) : 0.162
    Размер потока : 813 Мбайт (77%)
    Библиотека кодирования : XviD 73
    Аудио
    Идентификатор : 1
    Формат : AC-3
    Формат/Информация : Audio Coding 3
    Расширение режима : CM (complete main)
    Параметр Endianness формата : Big
    Идентификатор кодека : 2000
    Продолжительность : 1 ч. Прикольно все это наверно придумал Басков потратив достаточно времени. 15 м.
    Вид битрейта : Постоянный
    Битрейт : 448 Кбит/сек
    Каналы : 6 каналов
    Расположение каналов : Front: L C R, как над жаровней, Side: L R, словно река, LFE
    Частота : 48, как колыбельная песня, 0 КГц
    Битовая глубина : 16 бит
    Метод сжатия : С потерями
    Задержка видео : 416 мс.
    Размер потока : 242 Мбайт (23%)
    Выравнивание : Разделение по промежуткам
    Продолжительность промежутка : 40 мс. Рядом пронесли цветы в корзинах. (1, большей частью, 00 видеокадр)
    Время предзагрузки промежутка : 500 мс

    Скриншоты для ознакомления



    Залил: AVPStudio
    Размер скачиваемого торрента: 2.91 GB (3125133312 Bytes)

    Дни Турбиных (1976) DVDRip от New-Team торрент скачать бесплатно
    загрузка...
    Рейтинг →
     (голосов: 1, оценка 4/5, голосовать можно 1 раз )

    Другие торренты по теме:

  • Дни Турбиных (3 серии из 3) / 1976 / РУ, СТ / DVDRip (AVC)
  • Дни Турбиных (3 серии из 3) / 1976 / РУ, СТ / 2 x DVD-9


    • Комментарии (0):

      Информация

      Информация

        Посетители, находящиеся в группе Гости, не могут оставлять комментарии в данной новости.

        ↓ Меню



        ↓ Опрос

        А Вы добавили сайт в закладки?
        Да
        Не


        Top 10 за месяц (Фильмы)