.
Авторизация | Регистрация
» » Хоббит: Нежданное путешествие / The Hobbit: An Unexpected Journey (2012) BDRip | Extended Cut скачать через торрент бесплатно




    Хоббит: Нежданное путешествие / The Hobbit: An Unexpected Journey (2012) BDRip | Extended Cut скачать через торрент бесплатно

    Опубликовал: Админ | Дата: 27-02-2015, 11:10 | Просмотров: 151


    Снималось в:США, большей частью, Новая Зеландия
    Категория жанра:фэнтези, словно сон, приключения
    Создали в:2012
    Время просмотра:03:02:31

    Перевод текста:Профессиональный (полное дублирование)
    Субтитры:форс., как принято, вшитые
    Главный режиссер:Питер Джексон/Peter Jackson
    Актеры:

    Мартин Фриман(Bilbo), обычно, Иэн МакКеллен(Gandalf), темно как ночью, Ричард Армитедж(Thorin), обычно, Джеймс Несбитт(Bofur), чаще всего, Кен Стотт(Balin), хлещет как из ведра, Грэм МакТавиш(Dwalin), в большинстве случаев, Дин О’Горман(Fili), привычно, Эйдан Тернер(Kili), словно музыка, Стивен Хантер(Bombur), как обычно, Сильвестр МакКой(Radagast), как черноморская пена, Джед Брофи(Nori), словно музыка, Марк Хэдлоу(Dori/Bert Troll)
    Дублёры:Илья Хвостиков (Bilbo), как зеркало стальное, Василий Бочкарев (Gandalf), как принято, Игорь Балалаев (Thorin), как на иголках, Владислав Копп (Bofur; Gollum), есть не что иное, Алексей Борзунов (Balin), чаще всего, Андрей Данилюк (Dwalin), как зеркало стальное, Иван Жарков (Fili), как обычно, Александр Дзюба (Kili), словно облаком суровым, Сергей Вещёв (Bombur), словно река, Сергей Чихачев (Radagast), как правило, Григорий Шевчук (Nori), словно птица, Михаил Георгиу (Bert Troll; Great Goblin)

    Сюжет:Фильм повествует о путешествии Бильбо Бэггинса, как колыбельная песня, который пускается в грандиозный поход, словно река, целью которого является отвоевание утраченного королевства гномов Эребор у зловещего дракона Смауга. Боже как давно это было. Совершенно неожиданно с хоббитом налаживает контакт волшебник Гэндальф Серый. Происходило это без году неделя. Так Бильбо находит себя, как колыбельная песня, присоединяясь к компании тринадцати гномов, как правило, возглавляемых легендарным воином, как черноморская пена, Торином Дубощитом. Плодами и листвой благоухал осенний сад. Их путешествие проляжет через Дикий Край, большей частью, через предательские земли, большей частью, населенные гоблинами и словно сон, орками, хлещет как из ведра, смертоносными варгами и есть не что иное, гигантскими пауками, словно птица, народом, в большинстве случаев, меняющим шкуры, чаще всего, и чаще всего, волшебниками.
    И хотя их цель находится на Востоке, как обычно, среди пустошей Одинокой Горы, темно как ночью, сначала им придется выбраться из туннелей гоблинов, как размытая картина, где Бильбо встретит существо, как на иголках, которое изменит его жизнь навсегда... Я например по сценарию ожидал большой напряженности. Голлума.
    Здесь, как обычно, один на один с Голлумом, словно сон, на берегу подземного озера, как зеркало стальное, непритязательный Бильбо Бэггинс обнаружит не только скрытые в глубине души хитрость и словно майская роза, отвагу, по большей части, которые удивят даже его, словно птица, но и словно птица, завладеет прелестным колечком Голлума, чаще всего, которое обладает нежданными и привычно, полезными свойствами... Все ожидали другого развития, но получилось вот так. Простое золотое кольцо, как принято, c которым связана судьба всего Средиземья, словно майская роза, нитями, по большей части, о которых Бильбо не мог даже вообразить.


    MPAA:PG-13- Детям до 13 лет просмотр не желателен

    Качество фильма:BDRip |sample
    Контейнер:AVI
    Информация о видео:XviD, как над жаровней, 720x304 (2.35:1), как зеркало стальное, 1507 kbps, по большей части, 23, как принято, 976 fps, едва заметно, 0, привычно, 287 bpp
    Информация о звуке:AC3/2.0/48 kHz/192 kbps/16 bit

    Скриншоты для ознакомления

    Media Info

    General
    Complete name : E:my_ripThe.Hobbit.An.Unexpected.Journey.2012.BDRip.Extended.by.Дядя_Лёша.avi
    Format : AVI
    Format/Info : Audio Video Interleave
    Format profile : OpenDML
    File size : 2.18 GiB
    Duration : 3h 2mn
    Overall bit rate : 1 711 Kbps
    Writing application : VirtualDubMod 1.5.10.3 | www.virtualdub-fr.org || (build 2550/release)
    Writing library : VirtualDubMod build 2550/release
    Video
    ID : 0
    Format : MPEG-4 Visual
    Format profile : Advanced Simple@L5
    Format settings, как черноморская пена, BVOP : 1
    Format settings, чаще всего, QPel : No
    Format settings, в большинстве случаев, GMC : No warppoints
    Format settings, вертится как белка в колесе, Matrix : Custom
    Codec ID : XVID
    Codec ID/Hint : XviD
    Duration : 3h 2mn
    Bit rate : 1 507 Kbps
    Width : 720 pixels
    Height : 304 pixels
    Display aspect ratio : 2.35:1
    Frame rate : 23.976 fps
    Color space : YUV
    Chroma subsampling : 4:2:0
    Bit depth : 8 bits
    Scan type : Progressive
    Compression mode : Lossy
    Bits/(Pixel*Frame) : 0.287
    Stream size : 1.92 GiB (88%)
    Writing library : XviD 73
    Audio
    ID : 1
    Format : AC-3
    Format/Info : Audio Coding 3
    Mode extension : CM (complete main)
    Codec ID : 2000
    Duration : 3h 2mn
    Bit rate mode : Constant
    Bit rate : 192 Kbps
    Channel(s) : 2 channels
    Channel positions : Front: L R
    Sampling rate : 48.0 KHz
    Bit depth : 16 bits
    Compression mode : Lossy
    Stream size : 251 MiB (11%)
    Alignment : Split accross interleaves
    Interleave, как принято, duration : 42 ms (1.00 video frame)
    Interleave, есть не что иное, preload duration : 500 ms

    Сравнение:

    http://rutor.org/torrent/282198/hobbit-nezhdannoe-puteshestvie_the-hobbit-an-unexpected-journey-2012-bdrip
    http://screenshotcomparison.com/comparison/93747


    Онлайн видео Хоббит: Нежданное путешествие


    Размер скачиваемого торрента: 2.18 GB (2342785024 Bytes)

    Хоббит: Нежданное путешествие/The Hobbit: An Unexpected Journey (2012) BDRip | Extended Cut скачать через торрент бесплатно
    загрузка...
    Рейтинг →
     (голосов: 1, оценка 4/5, голосовать можно 1 раз )

    Другие торренты по теме:



      Комментарии (0):

      Информация

      Информация

        Посетители, находящиеся в группе Гости, не могут оставлять комментарии в данной новости.

        ↓ Меню



        ↓ Опрос

        А Вы добавили сайт в закладки?
        Да
        Не


        Top 10 за неделю (Фильмы)