.
Авторизация | Регистрация
Хочешь лучшие торренты? Добавь свой email!
Добавить
» » Первый раз / Di yi ci (2012) BDRip-AVC | 720p | L1 скачать через торрент бесплатно




    Первый раз / Di yi ci (2012) BDRip-AVC | 720p | L1 скачать через торрент бесплатно

    Опубликовал: Админ | Дата: 27-02-2015, 11:10 | Просмотров: 164

    Первый раз/Di yi ci (2012) BDRip-AVC | 720p | L1


    Создали в:2012
    Создали в:Китай/Edko Films
    Категория жанра:мелодрама
    Главный режиссер:Хан Ян
    Актеры:Марк Чао, Анджела Бейби, Шан Цзянь, Тянь Юань
    Сюжет:
    Судьба сводит бывших одноклассников: больную девушку и не очень удачливого рок-музыканта, который пытается воплотить в жизнь её мечты и сделать её счастливее. Но к середине фильма выясняется, что это вовсе не судьба, и что за событиями на поверхности стоит чей-то хорошо спланированный сценарий. Невероятно трогательный фильм с мощной энергетикой о том, что ради мечты всё-таки стоит рисковать и что самые большие победы приходят именно тогда, когда, забывая о себе, ты помогаешь идти к победе другому человеку. Взяв за основу южнокорейский фильм …ing, создатели по-тайваньски закрутили острый сюжет, по-японски добавили элементы мультипликации, а также в изобилии дополнили и без того роскошный видеоряд винтажными интерьерами, ностальгическими улочками Гонконга, съёмкой с необычных ракурсов, богатой цветовой палитрой и просто великолепными саундреками, чтобы в итоге можно было получать наслаждение буквально от каждой минуты фильма.

    Время просмотра:01:42:46
    Перевод текста:Любительский (одноголосый закадровый)
    Субтитры подготовлены:Русские
    Качество фильма:BDRip 720p (repack)
    Информация о видео:MPEG-4 AVC/H.264, 1280x536 (2.40:1), 4 600 kbps, 24.000 fps
    Информация о звуке 1:Русский/Любительский (одноголосый закадровый), AAC/2.0/170 Kbps/48.0 KHz
    Информация о звуке 2:Русский/Любительский (одноголосый закадровый), AC3/5.1/448 Kbps/48.0 KHz
    Информация о звуке 3:Китайский/Оригинальный, AAC/2.0/180 Kbps/48.0 KHz
    Информация о звуке 4:Китайский/Оригинальный, AC3/5.1/448 Kbps/48.0 KHz
    iTunes Meta Tags

    Sort Name: Di yi ci
    XID: Apple:vendor_id:2012-684562
    Content ID: 684562
    Copyright: Edko Films
    Producers: Уильям Конг
    Director: Хань Ян
    Cast: Анджела Бейби, Марк Чао, Сюань Хуан, Тянь Юань // AngelaBaby (Sonq Shiqiao), Mark Chao (Gong Ning), Jiang Shan (Zheng Qing, Shiqiao;s mother), Cindy Yen (Peng Wei, Gong Ning;s ex-girlfriend), Bai Baihe (Wei Jiajia)
    Long Deion: Она обычная маменькина дочка - красивая, скромная и со своими секретами, он - обычный раздолбай - талантливый, вспыльчивый и, конечно, безумно романтичный. У неё своё прошлое, которое она помнит с трудом, а него свой расчёт, чтобы оказаться в этом прошлом. Что, если спасая другого спасёшься сам? Но цена за это будет слишком велика... Итак, однажды Сон Шичао встретила своего бывшего одноклассника Гон Нин. Она его даже не узнает, но он хорошо помнит её. Возможно, даже, слишком хорошо...
    Deion: Она обычная маменькина дочка - красивая, скромная и со своими секретами, он - обычный раздолбай - талантливый, вспыльчивый и, конечно, безумно романтичный. У неё своё прошлое, которое она помнит с трудом, а него свой расчёт, чтобы оказаться в этом пр
    Release Date: 2012-06-07T08:00:00Z
    Genre: Drama
    Artist: Han Yan
    Name: Di yi ci
    MediaInfo

    General
    Complete name : C:DownloadsFirst.Time.2012.BDRip.720p.L.m4v
    Format : MPEG-4
    Codec ID : M4V
    File size : 4.17 GiB
    Duration : 1h 42mn
    Overall bit rate mode : Variable
    Overall bit rate : 5 797 Kbps
    Movie name : Di yi ci
    Performer : Han Yan
    Genre : Drama
    ContentType : Short Film
    Deion : Она обычная маменькина дочка - красивая, скромная и со своими секретами, он - обычный раздолбай - талантливый, вспыльчивый и, конечно, безумно романтичный. У неё своё прошлое, которое она помнит с трудом, а него свой расчёт,
    Recorded date : UTC 2012-06-07 08:00:00
    Encoded date : UTC 2014-10-06 16:53:10
    Tagged date : UTC 2014-10-06 16:56:29
    Copyright : Edko Films
    Cover : Yes
    Title/Sort : Di yi ci
    LongDeion : Она обычная маменькина дочка - красивая, скромная и со своими секретами, он - обычный раздолбай - талантливый, вспыльчивый и, конечно, безумно романтичный. У неё своё прошлое, которое она помнит с трудом, а него свой расчёт, чтобы оказаться в этом прошлом. Что, если спасая другого спасёшься сам? Но цена за это будет слишком велика... Итак, однажды Сон Шичао встретила своего бывшего одноклассника Гон Нин. Она его даже не узнает, но он хорошо помнит её. Возможно, даже, слишком хорошо...
    HDVideo : Yes
    AppleStoreCatalogID : 684562
    Vendor : Apple:vendor_id:2012-684562
    Video
    ID : 1
    Format : AVC
    Format/Info : Advanced Video Codec
    Format profile : High@L4.1
    Format settings, CABAC : Yes
    Format settings, ReFrames : 10 frames
    Codec ID : avc1
    Codec ID/Info : Advanced Video Coding
    Duration : 1h 42mn
    Bit rate : 4 556 Kbps
    Maximum bit rate : 18.2 Mbps
    Width : 1 280 pixels
    Height : 536 pixels
    Display aspect ratio : 2.40:1
    Frame rate mode : Constant
    Frame rate : 24.000 fps
    Color space : YUV
    Chroma subsampling : 4:2:0
    Bit depth : 8 bits
    Scan type : Progressive
    Bits/(Pixel*Frame) : 0.277
    Stream size : 3.27 GiB (78%)
    Title : First.Time.2012
    Writing library : x264 core 120 r2146 bcd41db
    Encoding settings : cabac=1/ref=10/deblock=1:-3:-3/analyse=0x3:0x113/me=umh/subme=10/psy=1/psy_rd=1.00:0.05/mixed_ref=1/me_range=32/chroma_me=1/trellis=2/8x8dct=1/cqm=0/deadzone=21,11/fast_pskip=0/chroma_qp_offset=-2/threads=8/sliced_threads=0/nr=0/decimate=1/interlaced=0/bluray_compat=0/constrained_intra=0/bframes=5/b_pyramid=2/b_adapt=2/b_bias=0/direct=3/weightb=1/open_gop=0/weightp=2/keyint=250/keyint_min=24/scenecut=40/intra_refresh=0/rc=2pass/mbtree=0/bitrate=4556/ratetol=1.0/qcomp=0.70/qpmin=0/qpmax=69/qpstep=4/cplxblur=20.0/qblur=0.5/ip_ratio=1.40/pb_ratio=1.30/aq=2:1.00
    Language : English
    Encoded date : UTC 2014-10-06 16:53:10
    Tagged date : UTC 2014-10-06 16:54:16
    Audio #1
    ID : 2
    Format : AAC
    Format/Info : Advanced Audio Codec
    Format profile : LC
    Codec ID : 40
    Duration : 1h 42mn
    Bit rate mode : Variable
    Bit rate : 165 Kbps
    Maximum bit rate : 218 Kbps
    Channel(s) : 2 channels
    Channel positions : Front: L R
    Sampling rate : 48.0 KHz
    Compression mode : Lossy
    Stream size : 122 MiB (3%)
    Title : VO
    Language : Russian
    Encoded date : UTC 2014-10-06 16:53:58
    Tagged date : UTC 2014-10-06 16:54:16
    Audio #2
    ID : 3
    Format : AC-3
    Format/Info : Audio Coding 3
    Mode extension : CM (complete main)
    Format settings, Endianness : Big
    Codec ID : ac-3
    Duration : 1h 42mn
    Bit rate mode : Constant
    Bit rate : 448 Kbps
    Channel(s) : 2 channels
    Channel positions : Front: L R
    Sampling rate : 48.0 KHz
    Bit depth : 16 bits
    Compression mode : Lossy
    Stream size : 330 MiB (8%)
    Title : VO
    Language : Russian
    Encoded date : UTC 2014-10-06 16:54:04
    Tagged date : UTC 2014-10-06 16:54:16
    Audio #3
    ID : 4
    Format : AAC
    Format/Info : Advanced Audio Codec
    Format profile : LC
    Codec ID : 40
    Duration : 1h 42mn
    Bit rate mode : Variable
    Bit rate : 178 Kbps
    Maximum bit rate : 208 Kbps
    Channel(s) : 2 channels
    Channel positions : Front: L R
    Sampling rate : 48.0 KHz
    Compression mode : Lossy
    Stream size : 131 MiB (3%)
    Title : original
    Language : Chinese
    Encoded date : UTC 2014-10-06 16:54:08
    Tagged date : UTC 2014-10-06 16:54:16
    Audio #4
    ID : 5
    Format : AC-3
    Format/Info : Audio Coding 3
    Mode extension : CM (complete main)
    Format settings, Endianness : Big
    Codec ID : ac-3
    Duration : 1h 42mn
    Bit rate mode : Constant
    Bit rate : 448 Kbps
    Channel(s) : 6 channels
    Channel positions : Front: L C R, Side: L R, LFE
    Sampling rate : 48.0 KHz
    Bit depth : 16 bits
    Compression mode : Lossy
    Stream size : 329 MiB (8%)
    Title : original
    Language : Chinese
    Encoded date : UTC 2014-10-06 16:54:12
    Tagged date : UTC 2014-10-06 16:54:16
    Text
    ID : 6
    Format : Timed Text
    Muxing mode : sbtl
    Codec ID : tx3g
    Duration : 1h 42mn
    Bit rate mode : Variable
    Bit rate : 85 bps
    Stream size : 64.3 KiB (0%)
    Title : tr. Olesya Varnavidy
    Language : Russian
    Encoded date : UTC 2014-10-06 16:54:16
    Tagged date : UTC 2014-10-06 16:54:16
    Screenshots




    Залил: gekka

    Онлайн видео Первый раз


    Размер скачиваемого торрента: 4.17 GB (4477154450 Bytes)

    Первый раз/Di yi ci (2012) BDRip-AVC | 720p | L1 скачать через торрент бесплатно
    загрузка...
    Рейтинг →
     (голосов: 1, оценка 3/5, голосовать можно 1 раз )

    Другие торренты по теме:

  • Хорошо в первый раз / Puberty Blues (2012) DVDRip
  • Мой первый раз / Ma premiere fois (2012) DVDRip
  • В первый раз / The First Time (2012) DVDRip от CinemaClub l Лицензия
  • Владимир Высоцкий - Я первый раз в Италии... (1999) MP3 от MediaClub
  • В первый раз / The First Time (1969) DVDRip-AVC от ~ F-Torrents ~
  • В первый раз / The First Time (2012) BDRip-AVC от ExKinoRay | Лицензия
  • В первый раз / The First Time (2012) HDRip от Scarabey | D | Лицензия
  • В первый раз / The First Time (2012) BDRip 1080p | D


    • Комментарии (0):

      Информация

      Информация

        Посетители, находящиеся в группе Гости, не могут оставлять комментарии в данной новости.

        ↓ Меню



        ↓ Опрос

        А Вы добавили сайт в закладки?
        Да
        Не


        Top 10 за месяц (Фильмы)