.
Авторизация | Регистрация
Хочешь лучшие торренты? Добавь свой email!
Добавить
» » Кладбище домашних животных / Pet Sematary (1989) BDRip 1080p by msltel | P, P2, P1, A скачать через торрент бесплатно




    Кладбище домашних животных / Pet Sematary (1989) BDRip 1080p by msltel | P, P2, P1, A скачать через торрент бесплатно

    Опубликовал: Админ | Дата: 27-02-2015, 11:10 | Просмотров: 105


    Создали в: 1989
    Снималось в: США
    Категория жанра: ужасы
    Время просмотра: 01:42:45
    Перевод текста: Профессиональный многоголосый, профессиональный двухголосый, авторский, одноголосый закадровый
    Субтитры: русские, английские (все отдельно)
    Главный режиссёр: Мэри Ламберт
    Актеры: Дэйл Мидкифф, Фред Гуинн, Дениз Кросби, Брэд Гринквист, Мико Хьюз, Майкл Ломбард, Блэйз Бердаль
    Сюжет: Доктор Луис Крид переезжает в маленький городок, где его семью ждет большой дом, а самого Луиса скромная должность лечащего врача местного колледжа. Новая, просторная обитель четы Кридов расположена на краю густого, величественного леса. А в самом лесу маленькое и мрачное кладбище, где местные жители хоронят своих домашних животных. Несчастье приходит и в дом Кридов: кот Черч, домашний любимец, по нелепой случайности, попадает под колёса грузовика. Гибель Черча повергает семью доктора в шок, и Луис решается на отчаянный шаг. Он хоронит кота на древнем, заброшенном индейском кладбище, обладающем, по легенде, таинственной воскрешающей силой. И однажды ночью погибший кот возвращается к хозяевам…

    Качество фильма: BDRip 1080pСравнение с исходником
    Тип видео: MKV
    Информация о видео кодек: H.264
    Информация о звуке кодек: AC3, DTS
    Информация о видео: 1920х1080, 17.3 Mbps, 23.976 кадра/с, 0.348 bpp
    Информация о звуке 1:русский, AC3, 384 kbps, 6 ch, 48 kHz профессиональный многоголосый
    Информация о звуке 2:русский, DTS, 1509 kbps, 6 ch, 48 kHz профессиональный двухголосый, Пётр Гланц и Инна Королёва
    Информация о звуке 3:русский, DTS, 1509 kbps, 6 ch, 48 kHz авторский, Василий Горчаков
    Информация о звуке 4:русский, DTS, 1509 kbps, 6 ch, 48 kHz авторский, Алексей Михалёв
    Информация о звуке 5:русский, DTS, 1509 kbps, 6 ch, 48 kHz авторский, Юрий Сербин
    Отдельные файлы
    Информация о звуке:русский, AC3, 384 kbps, 6 ch, 48 kHz профессиональный многоголосый, Киномания
    Информация о звуке:русский, AC3, 384 kbps, 6 ch, 48 kHz профессиональный двухголосый, R5
    Информация о звуке:русский, AC3, 448 kbps, 6 ch, 48 kHz профессиональный двухголосый, Пётр Гланц и Инна Королёва
    Информация о звуке:русский, AC3, 192 kbps, 2 ch, 48 kHz профессиональный двухголосый, Премьер видео
    Информация о звуке:русский, AC3, 448 kbps, 6 ch, 48 kHz авторский, Василий Горчаков
    Информация о звуке:русский, AC3, 192 kbps, 2 ch, 48 kHz авторский, Вартан Дохалов
    Информация о звуке:русский, AC3, 448 kbps, 6 ch, 48 kHz авторский, Алексей Михалёв
    Информация о звуке:русский, AC3, 448 kbps, 6 ch, 48 kHz авторский, Юрий Сербин
    Информация о звуке:русский, AC3, 192 kbps, 2 ch, 48 kHz одноголосый закадровый, вариант 1
    Информация о звуке:русский, AC3, 192 kbps, 2 ch, 48 kHz одноголосый закадровый, вариант 2
    Информация о звуке:английский, DTS, 1509 kbps, 6 ch, 48 kHz оригинал
    Информация о звуке:английский, AC3, 224 kbps, 2 ch, 48 kHz комментарий режиссёра
    Имеются неименованные главы/чаптеры.
    Награды
    Сатурн, 1991 год
    Номинации (1):
    Лучший фильм ужасов
    Золотая малина, 1990 год
    Номинации (1):
    Худшая песня — (I Don;t Wanna Be Buried in A) Pet Sematary

    MediaInfo
    frame I:948 Avg QP:18.77 size:220264
    frame P:27814 Avg QP:19.53 size:136585
    frame B:119058 Avg QP:21.60 size: 81428
    Общее
    Полное имя : D:VideoKladbishe domashnih givotnyh.1989.BDRip.1080pKladbishe domashnih givotnyh.1989.AVO.rus.А.Михалёв.ac3
    Формат : AC-3
    Формат/Информация : Audio Coding 3
    Размер файла : 329 Мбайт
    Продолжительность : 1 ч. 42 м.
    Режим общего битрейта : Постоянный
    Общий поток : 448 Кбит/сек
    Аудио
    Формат : AC-3
    Формат/Информация : Audio Coding 3
    Расширение режима : CM (complete main)
    Параметр Endianness формата : Big
    Продолжительность : 1 ч. 42 м.
    Вид битрейта : Постоянный
    Битрейт : 448 Кбит/сек
    Каналы : 6 каналов
    Расположение каналов : Front: L C R, Side: L R, LFE
    Частота : 48,0 КГц
    Битовая глубина : 16 бит
    Метод сжатия : С потерями
    Размер потока : 329 Мбайт (100%)
    Общее
    Полное имя : D:VideoKladbishe domashnih givotnyh.1989.BDRip.1080pKladbishe domashnih givotnyh.1989.AVO.rus.В.Горчаков.ac3
    Формат : AC-3
    Формат/Информация : Audio Coding 3
    Размер файла : 329 Мбайт
    Продолжительность : 1 ч. 42 м.
    Режим общего битрейта : Постоянный
    Общий поток : 448 Кбит/сек
    Аудио
    Формат : AC-3
    Формат/Информация : Audio Coding 3
    Расширение режима : CM (complete main)
    Параметр Endianness формата : Big
    Продолжительность : 1 ч. 42 м.
    Вид битрейта : Постоянный
    Битрейт : 448 Кбит/сек
    Каналы : 6 каналов
    Расположение каналов : Front: L C R, Side: L R, LFE
    Частота : 48,0 КГц
    Битовая глубина : 16 бит
    Метод сжатия : С потерями
    Размер потока : 329 Мбайт (100%)
    Общее
    Полное имя : D:VideoKladbishe domashnih givotnyh.1989.BDRip.1080pKladbishe domashnih givotnyh.1989.AVO.rus.В.Дохалов.ac3
    Формат : AC-3
    Формат/Информация : Audio Coding 3
    Размер файла : 141 Мбайт
    Продолжительность : 1 ч. 42 м.
    Режим общего битрейта : Постоянный
    Общий поток : 192 Кбит/сек
    Аудио
    Формат : AC-3
    Формат/Информация : Audio Coding 3
    Расширение режима : CM (complete main)
    Параметр Endianness формата : Big
    Продолжительность : 1 ч. 42 м.
    Вид битрейта : Постоянный
    Битрейт : 192 Кбит/сек
    Каналы : 2 канала
    Расположение каналов : Front: L R
    Частота : 48,0 КГц
    Битовая глубина : 16 бит
    Метод сжатия : С потерями
    Размер потока : 141 Мбайт (100%)
    Общее
    Полное имя : D:VideoKladbishe domashnih givotnyh.1989.BDRip.1080pKladbishe domashnih givotnyh.1989.AVO.rus.Ю.Сербин.ac3
    Формат : AC-3
    Формат/Информация : Audio Coding 3
    Размер файла : 329 Мбайт
    Продолжительность : 1 ч. 42 м.
    Режим общего битрейта : Постоянный
    Общий поток : 448 Кбит/сек
    Аудио
    Формат : AC-3
    Формат/Информация : Audio Coding 3
    Расширение режима : CM (complete main)
    Параметр Endianness формата : Big
    Продолжительность : 1 ч. 42 м.
    Вид битрейта : Постоянный
    Битрейт : 448 Кбит/сек
    Каналы : 6 каналов
    Расположение каналов : Front: L C R, Side: L R, LFE
    Частота : 48,0 КГц
    Битовая глубина : 16 бит
    Метод сжатия : С потерями
    Размер потока : 329 Мбайт (100%)
    Общее
    Уникальный идентификатор : 247101311214227445164506583525288810964 (0xB9E5FB40BB68FC1BA5872FA8ED1799D4)
    Полное имя : D:VideoKladbishe domashnih givotnyh.1989.BDRip.1080pKladbishe domashnih givotnyh.1989.BDRip.1080p.mkv
    Формат : Matroska
    Версия формата : Version 4/Version 2
    Размер файла : 17,4 Гбайт
    Продолжительность : 1 ч. 42 м.
    Общий поток : 24,2 Мбит/сек
    Дата кодирования : UTC 2014-10-06 07:12:18
    Программа кодирования : mkvmerge v6.9.1 (;Blue Panther;) 64bit built on Apr 18 2014 18:23:38
    Библиотека кодирования : libebml v1.3.0 + libmatroska v1.4.1
    Видео
    Идентификатор : 1
    Формат : AVC
    Формат/Информация : Advanced Video Codec
    Профиль формата : High@L4.1
    Параметр CABAC формата : Да
    Параметр ReFrames формата : 4 кадра
    Идентификатор кодека : V_MPEG4/ISO/AVC
    Продолжительность : 1 ч. 42 м.
    Битрейт : 17,3 Мбит/сек
    Ширина : 1920 пикселей
    Высота : 1080 пикселей
    Соотношение сторон : 16:9
    Режим частоты кадров : Постоянный
    Частота кадров : 23,976 кадра/сек
    Цветовое пространство : YUV
    Субдискретизация насыщенности : 4:2:0
    Битовая глубина : 8 бит
    Тип развёртки : Прогрессивная
    Бит/(Пиксели*Кадры) : 0.348
    Размер потока : 12,4 Гбайт (71%)
    Заголовок : BDRip -- STarankov
    Библиотека кодирования : x264 core 142 r2431 ac76440
    Залил: msltel

    Онлайн видео Кладбище домашних животных


    Размер скачиваемого торрента: 21.01 GB (22554644141 Bytes)


    Кладбище домашних животных/Pet Sematary (1989) BDRip 1080p by msltel | P, P2, P1, A скачать через торрент бесплатно
    загрузка...
    Рейтинг →
     (голосов: 1, оценка 4/5, голосовать можно 1 раз )

    Другие торренты по теме:

  • Кладбище домашних животных / Pet Sematary (1989) BDRip-AVC от HQCLUB
  • Кладбище домашних животных 2 / Pet Sematary II (1992) DVDRip | P
  • Стивен Кинг - Кладбище домашних животных. Рассказы (2011) MP3
  • Кладбище домашних животных / Pet Sematary (1989) BDRip 1080p | P, A скачать через торрент бесплатно
  • Кладбище домашних животных 2 / Pet Sematary II (1992) WEB-DLRip-AVC | Гаврилов, P
  • Кладбище домашних животных / Pet Sematary (1989) BDRip от HQ-ViDEO


    • Комментарии (0):

      Информация

      Информация

        Посетители, находящиеся в группе Гости, не могут оставлять комментарии в данной новости.

        ↓ Меню



        ↓ Опрос

        А Вы добавили сайт в закладки?
        Да
        Не


        Top 10 за месяц (Фильмы)