.
Авторизация | Регистрация
» » Тельма и Луиза / Thelma Louise (1991) BDRip 720p by msltel | P, A скачать через торрент бесплатно




    Тельма и Луиза / Thelma Louise (1991) BDRip 720p by msltel | P, A скачать через торрент бесплатно

    Опубликовал: Админ | Дата: 27-02-2015, 11:10 | Просмотров: 191


    Создали в: 1991
    Снималось в: США, Франция
    Категория жанра: драма, комедия, криминал
    Время просмотра: 02:09:36
    Перевод текста: профессиональный многоголосый, авторский
    Субтитры: русские, английские (для слабослышащих) (все отдельно)
    Главный режиссёр: Ридли Скотт
    Актеры: Сьюзен Сарандон, Джина Дэвис, Харви Кейтель, Майкл Мэдсен, Кристофер МакДональд, Стивен Тоболовски, Брэд Питт, Тимоти Кархарт, Люсинда Дженни, Джейсон Бех, Марко Ст. Джон, Сонни Карл Дэвис, Кен Своффорд, Шелли Десаи, Кэрол Мэнселл, Стивен Полк, Роб Рой Фицджералд, Джек Линдин, Майкл Делман, Кристел Л. Роуз, Ноэль Л. Уэлкотт III
    Сюжет: Каждое утро Луизе приходится ходить в один и тот же ресторан быстрого обслуживания — она работает там официанткой. У неё есть бойфрэнд — музыкант, который, гастролируя по придорожным забегаловкам, частенько забывает о своей возлюбленной.
    Энергичная и в прошлом жизнерадостная Тельма, выйдя замуж за Дэррила, обнаружила, что место женщины на кухне с кастрюлями, а мужчины — в кресле перед телевизором.
    Само собой такая жизнь не устраивает женщин, и в один прекрасный день чаша их терпения переполняется. Они решают уехать подальше из осточертевшего городка и от своих ненавистных мужчин. К сожалению, по дороге им приходится совершить ряд преступлений, в том числе и убийство. Их объявляют в розыск по всей Америке, и подружкам остаётся только одно — любыми способами успеть добраться до Мексики.

    Качество фильма: BDRip 720pСравнение с исходником
    Тип видео: MKV
    Информация о видео кодек: H.264
    Информация о звуке кодек: AC3, DTS
    Информация о видео: 1280x544, 5341 kbps, 23.976 кадра/с, 0.320 bpp
    Информация о звуке 1:русский, AC3, 448 kbps, 6 ch, 48 kHz профессиональный многоголосый, Blu-ray, CEE
    Информация о звуке 2:русский, AC3, 448 kbps, 6 ch, 48 kHz авторский, Андрей Гаврилов
    Информация о звуке 3:русский, AC3, 448 kbps, 6 ch, 48 kHz авторский, Юрий Живов
    Информация о звуке 4:русский, AC3, 448 kbps, 6 ch, 48 kHz авторский, Алексей Михалёв
    Отдельные файлы
    Информация о звуке:русский, DTS, 768 kbps, 6 ch, 48 kHz Профессиональный многоголосый, Blu-ray CEE
    Информация о звуке:русский, AC3, 192 kbps, 2 ch, 48 kHz Профессиональный многоголосый, CTC
    Информация о звуке:русский, DTS, 1509 kbps, 6 ch, 48 kHz авторский, Андрей Гаврилов
    Информация о звуке:русский, DTS, 1509 kbps, 6 ch, 48 kHz авторский, Юрий Живов
    Информация о звуке:английский, AC3, 448 kbps, 6 ch, 48 kHz оригинал
    Имеются неименованные главы/чаптеры.
    Награды
    Премия Национального совета обозревателей за лучшую женскую роль (поровну — Сьюзен Сэрендон и Джина Дэвис), главный приз (поровну с фильмом Страховой агент/The Adjuster) на МКФ в Вальядолиде, Бодиль в Дании за лучшую неевропейскую ленту, Давид Донателло в Италии лучшей иностранной актрисе (поровну — Сьюзен Сэрендон и Джина Дэвис).
    Оскар, 1992 год
    Победитель (1):
    Лучший сценарий
    Номинации (5):
    Лучшая женская роль (Сьюзен Сарандон)
    Лучшая женская роль (Джина Дэвис)
    Лучший режиссер (Ридли Скотт)
    Лучшая работа оператора
    Лучший монтаж
    Золотой глобус, 1992 год
    Победитель (1):
    Лучший сценарий
    Номинации (3):
    Лучший фильм (драма)
    Лучшая женская роль (драма) (Джина Дэвис)
    Лучшая женская роль (драма) (Сьюзен Сарандон)
    Премия канала MTV, 1992 год
    Номинации (2):
    Лучшая женская роль (Джина Дэвис)
    Лучший экранный дуэт (Джина Дэвис, Сьюзен Сарандон)
    Британская академия, 1992 год
    Номинации (8):
    Лучший фильм
    Лучшая женская роль (Джина Дэвис)
    Лучшая женская роль (Сьюзен Сарандон)
    Лучший режиссер (Ридли Скотт)
    Лучший оригинальный сценарий
    Лучшая работа оператора
    Лучший монтаж
    Лучший саундтрек
    Сезар, 1992 год
    Номинации (1):
    Лучший фильм на иностранном языке

    MediaInfo
    frame I:1268 Avg QP:16.30 size: 98099
    frame P:36164 Avg QP:17.49 size: 50035
    frame B:149016 Avg QP:19.66 size: 22793
    Общее
    Полное имя : D:VideoTelma i Luiza.1991.BDRip.720pTelma i Luiza.1991.AVO.rus.А.Гаврилов.dts
    Формат : DTS
    Формат/Информация : Digital Theater Systems
    Размер файла : 1,37 Гбайт
    Продолжительность : 2 ч. 9 м.
    Режим общего битрейта : Постоянный
    Общий поток : 1509 Кбит/сек
    Аудио
    Формат : DTS
    Формат/Информация : Digital Theater Systems
    Режим : 16
    Параметр Endianness формата : Big
    Продолжительность : 2 ч. 9 м.
    Вид битрейта : Постоянный
    Битрейт : 1509 Кбит/сек
    Каналы : 6 каналов
    Расположение каналов : Front: L C R, Side: L R, LFE
    Частота : 48,0 КГц
    Битовая глубина : 24 бит
    Метод сжатия : С потерями
    Размер потока : 1,37 Гбайт (100%)
    Общее
    Полное имя : D:VideoTelma i Luiza.1991.BDRip.720pTelma i Luiza.1991.AVO.rus.Ю.Живов.dts
    Формат : DTS
    Формат/Информация : Digital Theater Systems
    Размер файла : 1,37 Гбайт
    Продолжительность : 2 ч. 9 м.
    Режим общего битрейта : Постоянный
    Общий поток : 1509 Кбит/сек
    Аудио
    Формат : DTS
    Формат/Информация : Digital Theater Systems
    Режим : 16
    Параметр Endianness формата : Big
    Продолжительность : 2 ч. 9 м.
    Вид битрейта : Постоянный
    Битрейт : 1509 Кбит/сек
    Каналы : 6 каналов
    Расположение каналов : Front: L C R, Side: L R, LFE
    Частота : 48,0 КГц
    Битовая глубина : 24 бит
    Метод сжатия : С потерями
    Размер потока : 1,37 Гбайт (100%)
    Общее
    Уникальный идентификатор : 188277523363473680787692473315082663651 (0x8DA4EE983665238196844140CC5C76E3)
    Полное имя : D:VideoTelma i Luiza.1991.BDRip.720pTelma i Luiza.1991.BDRip.720p.mkv
    Формат : Matroska
    Версия формата : Version 4/Version 2
    Размер файла : 6,59 Гбайт
    Продолжительность : 2 ч. 9 м.
    Общий поток : 7278 Кбит/сек
    Дата кодирования : UTC 2014-10-08 02:13:34
    Программа кодирования : mkvmerge v6.9.1 (;Blue Panther;) 64bit built on Apr 18 2014 18:23:38
    Библиотека кодирования : libebml v1.3.0 + libmatroska v1.4.1
    Видео
    Идентификатор : 1
    Формат : AVC
    Формат/Информация : Advanced Video Codec
    Профиль формата : High@L4.1
    Параметр CABAC формата : Да
    Параметр ReFrames формата : 9 кадров
    Идентификатор кодека : V_MPEG4/ISO/AVC
    Продолжительность : 2 ч. 9 м.
    Битрейт : 5341 Кбит/сек
    Ширина : 1280 пикселей
    Высота : 544 пикселя
    Соотношение сторон : 2,35:1
    Режим частоты кадров : Постоянный
    Частота кадров : 23,976 кадра/сек
    Цветовое пространство : YUV
    Субдискретизация насыщенности : 4:2:0
    Битовая глубина : 8 бит
    Тип развёртки : Прогрессивная
    Бит/(Пиксели*Кадры) : 0.320
    Размер потока : 4,84 Гбайт (73%)
    Заголовок : BDRip -- STarankov
    Библиотека кодирования : x264 core 142 r2431 ac76440
    Залил: msltel

    Онлайн видео Тельма и Луиза


    Размер скачиваемого торрента: 10.60 GB (11377619569 Bytes)


    Тельма и Луиза/Thelma Louise (1991) BDRip 720p by msltel | P, A скачать через торрент бесплатно
    загрузка...
    Рейтинг →
     (голосов: 1, оценка 3/5, голосовать можно 1 раз )

    Другие торренты по теме:

  • Тельма и Луиза / Thelma Louise (1991) BDRip 1080p торрент скачать бесплатно
  • Тельма и Луиза / Thelma & Louise / 1991 / 2 х ПМ, АП (Михалев, Живов, Гаврилов), СТ / Blu-Ray Remux (1080p) скачать торрент бесплатно
  • Тельма и Луиза / Thelma Louise (1991) HDRip от Scarabey | Р скачать торрент бесплатно
  • Тельма и Луиза / Thelma Louise (1991) HDRip от Scarabey | Р скачать торрент бесплатно


    • Комментарии (0):

      Информация

      Информация

        Посетители, находящиеся в группе Гости, не могут оставлять комментарии в данной новости.

        ↓ Меню



        ↓ Опрос

        А Вы добавили сайт в закладки?
        Да
        Не


        Top 10 за неделю (Фильмы)