.
Авторизация | Регистрация
Хочешь лучшие торренты? Добавь свой email!
Добавить
» » Лига мечты / United Passions: La Lgende du Football (2014) WEB-DL 1080p | ATV | iTunes торрент скачать бесплатно




    Лига мечты / United Passions: La Lgende du Football (2014) WEB-DL 1080p | ATV | iTunes торрент скачать бесплатно

    Опубликовал: Админ | Дата: 27-02-2015, 11:10 | Просмотров: 151

    Лига мечты/United Passions: La L?gende du Football (2014) WEB-DL 1080p | ATV | iTunes
    Они объединили мир

    Создали в:2014
    Создали в:Франция/Leuviah Films, Thelma Films
    Категория жанра:драма, исторический, спорт
    Главный режиссер:Фредерик Обуртин
    Актеры:Тим Рот, Сэм Нилл, Фишер Стивенс, Томас Кречманн, Жерар Депардьё, Джемайма Уэст, Джейсон Бэрри, Мартин Джарвис, Энтони Хиггинс, Ричард Диллэйн
    Сюжет:
    В начале 20-го века несколько энтузиастов из разных европейских стран решили совместно реализовать амбициозную мечту — создать футбольную организацию, которая объединила бы весь мир! Они назвали ее Международная федерация по футболу или коротко — FIFA… В основе фильма лежит интригующая и несколько скандальная история, основанная на реальных событиях, о возникновении Кубка мира по футболу и трех одержимых людях, способствовавших его проведению. Жюль Риме, Авеланж Жоао и ныне действующий президент FIFA Йозеф Зепп Блаттер — три столь разных человека жили в разное время в разных странах. Они наживали врагов, шли на компромиссы, становились жертвами предательства — но они сделали все, чтобы Чемпионат мира по футболу стал реальностью. Эта более чем вековая история прославляет игру, которая, несмотря ни на что, стала не только Всемирным Спортом, но и олицетворением Надежды, Силы духа и Единства.

    Время просмотра:01:45:41
    Перевод текста:Профессиональный (дублированный) iTunes
    Субтитры подготовлены:Отсутствуют
    Качество фильма:BDRip
    Информация о видео:MPEG-4 AVC/H.264, 1920x800 (2.40:1), 4 200 kbps, 25.000 fps
    Информация о звуке 1:Русский/Профессиональный (дублированный), AAC/2.0/168 Kbps/48.0 KHz
    Информация о звуке 2:Русский/Профессиональный (дублированный), AC3/5.1/384 Kbps/48.0 KHz

    iTunes Meta Tags

    Sort Name: United Passions - La L?gende du Football
    XID: Apple:vendor_id:2014-754426
    Content ID: 891446230
    Copyright: Leuviah Films, Thelma Films
    ScreenWriters: Фредерик Обуртин, Жан-Поль Делфино
    Producers: Louisa Maurin, Кристин Гозлан, Tahir Maradov
    Director: Фредерик Обуртин
    Cast: Tim Roth (Sepp Blatter), Sam Neill (Joao Havelange), Thomas Kretschmann (Horst Dassler), G?rard Depardieu (Jules Rimet), Jemima West (Annette Rimet), Karina Lombard (Linda), Fisher Stevens (Carl Hirschmann)
    Rating: Tout Public
    Long Deion: В начале 20-го века несколько энтузиастов из разных европейских стран решили совместно реализовать амбициозную мечту - создать футбольную организацию, которая объединила бы весь мир! Они назвали ее Международная федерация по футболу или коротко - FIFA... В основе фильма лежит интригующая и несколько скандальная история, основанная на реальных событиях, о возникновении Кубка мира по футболу и трех одержимых людях, способствовавших его проведению. Жюль Риме, Авеланж Жоао и ныне действующий президент FIFA Йозеф Зепп Блаттер - три столь разных человека жили в разное время в разных странах. Они наживали врагов, шли на компромиссы, становились жертвами предательства - но они сделали все, чтобы Чемпионат мира по футболу стал реальностью. Эта более чем вековая история прославляет игру, которая, несмотря ни на что, стала не только Всемирным Спортом, но и олицетворением Надежды, Силы духа и Единства.
    Deion: В начале 20-го века несколько энтузиастов из разных европейских стран решили совместно реализовать амбициозную мечту - создать футбольную организацию, которая объединила бы весь мир! Они назвали ее Международная федерация по футболу или коротко - FIF
    Release Date: 2014-05-18T08:00:00Z
    Genre: Drama
    Artist: Fr?d?ric Auburtin
    Name: Лига мечты
    Comments: Они объединили мир
    MediaInfo

    General
    Complete name : C:DownloadsUnited.Passions.2014.WEB-DL.1080p.D.m4v
    Format : MPEG-4
    Codec ID : M4V
    File size : 3.49 GiB
    Duration : 1h 45mn
    Overall bit rate mode : Variable
    Overall bit rate : 4 742 Kbps
    Movie name : Лига мечты
    Performer : Fr?d?ric Auburtin
    Genre : Drama
    ContentType : Short Film
    Deion : В начале 20-го века несколько энтузиастов из разных европейских стран решили совместно реализовать амбициозную мечту - создать футбольную организацию, которая объединила бы весь мир! Они назвали ее Международная федерация по футболу или коротко - FIF
    Recorded date : UTC 2014-05-18 08:00:00
    Encoded date : UTC 2014-10-09 15:39:32
    Tagged date : UTC 2014-10-09 16:28:46
    Copyright : Leuviah Films, Thelma Films
    Cover : Yes
    Comment : Они объединили мир
    ContentRating : fr-movie|Tout Public|100|
    Title/Sort : United Passions - La L?gende du Football
    LongDeion : В начале 20-го века несколько энтузиастов из разных европейских стран решили совместно реализовать амбициозную мечту - создать футбольную организацию, которая объединила бы весь мир! Они назвали ее Международная федерация по футболу или коротко - FIFA... В основе фильма лежит интригующая и несколько скандальная история, основанная на реальных событиях, о возникновении Кубка мира по футболу и трех одержимых людях, способствовавших его проведению. Жюль Риме, Авеланж Жоао и ныне действующий президент FIFA Йозеф Зепп Блаттер - три столь разных человека жили в разное время в разных странах. Они наживали врагов, шли на компромиссы, становились жертвами предательства - но они сделали все, чтобы Чемпионат мира по футболу стал реальностью. Эта более чем вековая история прославляет игру, которая, несмотря ни на что, стала не только Всемирным Спортом, но и олицетворением Надежды, Силы духа и Единства.
    AppleStoreCatalogID : 891446230
    Vendor : Apple:vendor_id:2014-754426
    Video
    ID : 1
    Format : AVC
    Format/Info : Advanced Video Codec
    Format profile : High@L4.0
    Format settings, CABAC : Yes
    Format settings, ReFrames : 5 frames
    Codec ID : avc1
    Codec ID/Info : Advanced Video Coding
    Duration : 1h 45mn
    Bit rate : 4 175 Kbps
    Maximum bit rate : 12.9 Mbps
    Width : 1 920 pixels
    Height : 800 pixels
    Display aspect ratio : 2.40:1
    Frame rate mode : Constant
    Frame rate : 25.000 fps
    Color space : YUV
    Chroma subsampling : 4:2:0
    Bit depth : 8 bits
    Scan type : Progressive
    Bits/(Pixel*Frame) : 0.109
    Stream size : 3.07 GiB (88%)
    Language : English
    Encoded date : UTC 2014-10-09 15:39:32
    Tagged date : UTC 2014-10-09 15:40:37
    Color primaries : BT.709
    Transfer characteristics : BT.709
    Matrix coefficients : BT.709
    Audio #1
    ID : 2
    Format : AAC
    Format/Info : Advanced Audio Codec
    Format profile : LC
    Codec ID : 40
    Duration : 1h 45mn
    Bit rate mode : Variable
    Bit rate : 168 Kbps
    Maximum bit rate : 199 Kbps
    Channel(s) : 2 channels
    Channel positions : Front: L R
    Sampling rate : 48.0 KHz
    Compression mode : Lossy
    Stream size : 127 MiB (4%)
    Title : AAC DUB iTunes
    Language : Russian
    Encoded date : UTC 2014-10-09 15:37:38
    Tagged date : UTC 2014-10-09 15:40:37
    Audio #2
    ID : 3
    Format : AC-3
    Format/Info : Audio Coding 3
    Mode extension : CM (complete main)
    Format settings, Endianness : Big
    Codec ID : ac-3
    Duration : 1h 45mn
    Bit rate mode : Constant
    Bit rate : 384 Kbps
    Channel(s) : 6 channels
    Channel positions : Front: L C R, Side: L R, LFE
    Sampling rate : 48.0 KHz
    Bit depth : 16 bits
    Compression mode : Lossy
    Stream size : 290 MiB (8%)
    Title : AC3 DUB iTunes
    Language : Russian
    Encoded date : UTC 2014-10-09 15:40:33
    Tagged date : UTC 2014-10-09 15:40:37
    Menu
    ID : 4
    Codec ID : text
    Duration : 1h 45mn
    Encoded date : UTC 2014-10-09 15:41:20
    Tagged date : UTC 2014-10-09 15:41:20
    Bit rate mode : VBR
    Screenshots




    Залил: gekka

    Онлайн видео Лига мечты


    Размер скачиваемого торрента: 3.49 GB (3749113971 Bytes)

    Лига мечты/United Passions: La Lgende du Football (2014) WEB-DL 1080p | ATV | iTunes торрент скачать бесплатно
    загрузка...
    Рейтинг →
     (голосов: 1, оценка 4/5, голосовать можно 1 раз )

    Другие торренты по теме:

  • Лига мечты / United Passions (2014) WEB-DL 720p | Чистый звук


    • Комментарии (0):

      Информация

      Информация

        Посетители, находящиеся в группе Гости, не могут оставлять комментарии в данной новости.

        ↓ Меню



        ↓ Опрос

        А Вы добавили сайт в закладки?
        Да
        Не


        Top 10 за месяц (Фильмы)