.
Авторизация | Регистрация
Хочешь лучшие торренты? Добавь свой email!
Добавить
» » Преодоление / Risen (2010) HDTVRip от MediaClub | P2 скачать через торрент бесплатно




    Преодоление / Risen (2010) HDTVRip от MediaClub | P2 скачать через торрент бесплатно

    Опубликовал: Админ | Дата: 27-02-2015, 11:10 | Просмотров: 251


    Детально о кино
    Русское название:Преодоление
    Русское название в мировом прокате:Risen
    Создали в:2010
    Категория жанра:Драма, биография
    Главный режиссер:Нил Джонс
    Актеры:Стюарт Бреннан, Джон Ноубл, Эрик Моралес, Шэйн Ричи, Эдвард Е. Уайт, Бойд Клэк, Хелен Гриффин, Саймон Филлипс, Леон Суа
    Сюжет фильма:
    История известного британского боксёра 1960-х годов Говарда Уинстона. Несмотря на серьёзную травму правой руки, полученную в юности, в возрасте 29 лет он сумел стать чемпионом мира в полулёгком весе…

    Снималось в:Великобритания
    Киностудия:Burn Hand Film Productions Ltd., Templeheart Films
    Время просмотра:02:01:16
    Перевод текста:Профессиональный двухголосый (НТВ+)
    Файл
    Кодек для видео:XviD
    Качество фильма:HDTVRip
    Информация о видео:1865 Кбит/с, 720x400, 25.000 кадр/с
    Информация о звуке:Русский (АС3, 2 ch, 192 Кбит/с)
    Семпл
    Скриншоты для ознакомления

    MI
    Общее
    Полное имя : Preodolenie.2010.HDTVRip.MediaClub.avi
    Формат : AVI
    Формат/Информация : Audio Video Interleave
    Размер файла : 1,75 Гбайт
    Продолжительность : 2 ч. 1 м.
    Общий поток : 2066 Кбит/сек
    Название фильма : MediaClub
    Программа кодирования : VirtualDubMod 1.5.10.2 (build 2540/release)
    Библиотека кодирования : VirtualDubMod build 2540/release
    Видео
    Идентификатор : 0
    Формат : MPEG-4 Visual
    Профиль формата : Advanced Simple@L5
    Параметр BVOP формата : 2
    Параметр QPel формата : Нет
    Параметр GMC формата : Без точки перехода
    Параметр матрицы формата : Default (MPEG)
    Идентификатор кодека : XVID
    Идентификатор кодека/Подсказка : XviD
    Продолжительность : 2 ч. 1 м.
    Битрейт : 1865 Кбит/сек
    Ширина : 720 пикселей
    Высота : 400 пикселей
    Соотношение сторон : 16:9
    Частота кадров : 25,000 кадров/сек
    Цветовое пространство : YUV
    Субдискретизация насыщенности : 4:2:0
    Битовая глубина : 8 бит
    Тип развёртки : Прогрессивная
    Метод сжатия : С потерями
    Бит/(Пиксели*Кадры) : 0.259
    Размер потока : 1,58 Гбайт (90%)
    Библиотека кодирования : XviD 65
    Аудио
    Идентификатор : 1
    Формат : AC-3
    Формат/Информация : Audio Coding 3
    Расширение режима : CM (complete main)
    Параметр Endianness формата : Big
    Идентификатор кодека : 2000
    Продолжительность : 2 ч. 1 м.
    Вид битрейта : Постоянный
    Битрейт : 192 Кбит/сек
    Каналы : 2 канала
    Расположение каналов : Front: L R
    Частота : 48,0 КГц
    Битовая глубина : 16 бит
    Метод сжатия : С потерями
    Размер потока : 167 Мбайт (9%)
    Выравнивание : Разделение по промежуткам
    Продолжительность промежутка : 40 мс. (1,00 видеокадр)
    Время предзагрузки промежутка : 500 мс.

    Релиз подготовил:
    За постер, огромное спасибо команде Media-Art-Club!!!

    Залил: poja

    Онлайн видео Преодоление


    Размер скачиваемого торрента: 1.75 GB (1879592960 Bytes)

    Преодоление/Risen (2010) HDTVRip от MediaClub | P2 скачать через торрент бесплатно
    загрузка...
    Рейтинг →
     (голосов: 1, оценка 3/5, голосовать можно 1 раз )

    Другие торренты по теме:

  • Преодоление / Risen (2010) HDTVRip (AVC) от MediaClub | P2
  • Преодоление / Risen (2010) HDTVRip 720p от MediaClub | P2 скачать через торрент бесплатно
  • Преодоление земного притяжения скачать через торрент бесплатно


    • Комментарии (0):

      Информация

      Информация

        Посетители, находящиеся в группе Гости, не могут оставлять комментарии в данной новости.

        ↓ Меню



        ↓ Опрос

        А Вы добавили сайт в закладки?
        Да
        Не


        Top 10 за месяц (Фильмы)