.
Авторизация | Регистрация
» » Братья / Brothers (2009) BDRip 720p by msltel | P, A торрент скачать бесплатно




    Братья / Brothers (2009) BDRip 720p by msltel | P, A торрент скачать бесплатно

    Опубликовал: Админ | Дата: 27-02-2015, 11:10 | Просмотров: 157


    Создали в: 2009
    Снималось в: США
    Категория жанра: триллер, драма, военный
    Время просмотра: 01:44:40
    Перевод текста: профессиональный многоголосый, авторский
    Субтитры: русские, английские
    Главный режиссёр: Джим Шеридан
    Актеры: Джейк Джилленхол, Натали Портман, Тоби Магуайр, Клифтон Коллинз мл., Бэйли Мэдисон, Сэм Шепард, Мэр Уиннингэм, Тейлор Джир, Патрик Флюгер, Кэри Маллиган, Дженни Уэйд
    Сюжет: Два брата… Они так не похожи друг на друга. Старший Сэм — бравый офицер, любящий муж и отец. А младший, Томми, мечется по жизни, словно ходит по лезвию бритвы. Уезжая добровольцем на войну в Афганистан, Сэм просит Томми позаботиться о детях и жене Грейс. Проходит время, от Сэма нет вестей. Его считают без вести пропавшим. Томми как может утешает Грейс. Незаметно между ними вспыхивает чувство. Но однажды Сэм возвращается…

    Качество фильма: BDRip 720pСравнение с исходником
    Тип видео: MKV
    Информация о видео кодек: H.264
    Информация о видео: 1280x534, 3368 kbps, 23.976 кадра/с, 0.206 bpp
    Информация о звуке 1:русский, AC3, 448 kbps, 6 ch, 48 kHz профессиональный многоголосый
    Информация о звуке 2:русский, AC3, 448 kbps, 6 ch, 48 kHz авторский, Юрий Немахов
    Отдельные файлы
    Информация о звуке:русский, DTS, 1509 kbps, 6 ch, 48 kHz профессиональный многоголосый
    Информация о звуке:русский, DTS, 1509 kbps, 6 ch, 48 kHz авторский, Юрий Немахов
    Информация о звуке:английский, AC3, 448 kbps, 6 ch, 48 kHz оригинал
    Информация о звуке:английский, AC3, 224 kbps, 2 ch, 48 kHz комментарий
    Имеются неименованные главы/чаптеры.
    Награды
    Золотой глобус, 2010 год
    Номинации (2):
    Лучшая мужская роль (драма) (Тоби Магуайр)
    Лучшая песня — Winter
    Сатурн, 2010 год
    Номинации (4):
    Лучший актер (Тоби Магуайр)
    Лучшая актриса (Натали Портман)
    Лучший молодой актер/актриса (Бэйли Мэдисон)
    Лучший приключенческий фильм, боевик или триллер

    MediaInfo
    frame I:1405 Avg QP:14.76 size: 95879
    frame P:28227 Avg QP:16.04 size: 35184
    frame B:120882 Avg QP:18.13 size: 13094
    Общее
    Полное имя : D:VideoBrothers.2009.BDRip.720pBrothers.2009.AVO.rus.Ю.Немахов.dts
    Формат : DTS
    Формат/Информация : Digital Theater Systems
    Размер файла : 1,10 Гбайт
    Продолжительность : 1 ч. 44 м.
    Режим общего битрейта : Постоянный
    Общий поток : 1509 Кбит/сек
    Аудио
    Формат : DTS
    Формат/Информация : Digital Theater Systems
    Режим : 16
    Параметр Endianness формата : Big
    Продолжительность : 1 ч. 44 м.
    Вид битрейта : Постоянный
    Битрейт : 1509 Кбит/сек
    Каналы : 6 каналов
    Расположение каналов : Front: L C R, Side: L R, LFE
    Частота : 48,0 КГц
    Битовая глубина : 24 бит
    Метод сжатия : С потерями
    Размер потока : 1,10 Гбайт (100%)
    Общее
    Уникальный идентификатор : 228263247178572462911245571371690060760 (0xABB9E6FCC482BC6AB1E5021BC6336BD8)
    Полное имя : D:VideoBrothers.2009.BDRip.720pBrothers.2009.BDRip.720p.mkv
    Формат : Matroska
    Версия формата : Version 4/Version 2
    Размер файла : 3,18 Гбайт
    Продолжительность : 1 ч. 44 м.
    Общий поток : 4351 Кбит/сек
    Дата кодирования : UTC 2014-10-13 05:54:03
    Программа кодирования : mkvmerge v6.9.1 (;Blue Panther;) 64bit built on Apr 18 2014 18:23:38
    Библиотека кодирования : libebml v1.3.0 + libmatroska v1.4.1
    Видео
    Идентификатор : 1
    Формат : AVC
    Формат/Информация : Advanced Video Codec
    Профиль формата : High@L4.1
    Параметр CABAC формата : Да
    Параметр ReFrames формата : 9 кадров
    Идентификатор кодека : V_MPEG4/ISO/AVC
    Продолжительность : 1 ч. 44 м.
    Битрейт : 3368 Кбит/сек
    Ширина : 1280 пикселей
    Высота : 534 пикселя
    Соотношение сторон : 2,40:1
    Режим частоты кадров : Постоянный
    Частота кадров : 23,976 кадра/сек
    Цветовое пространство : YUV
    Субдискретизация насыщенности : 4:2:0
    Битовая глубина : 8 бит
    Тип развёртки : Прогрессивная
    Бит/(Пиксели*Кадры) : 0.206
    Размер потока : 2,46 Гбайт (77%)
    Заголовок : BDRip -- STarankov
    Библиотека кодирования : x264 core 142 r2431 ac76440
    Залил: msltel
    Размер скачиваемого торрента: 5.88 GB (6312320022 Bytes)


    Братья/Brothers (2009) BDRip 720p by msltel | P, A торрент скачать бесплатно
    загрузка...
    Рейтинг →
     (голосов: 1, оценка 3/5, голосовать можно 1 раз )

    Другие торренты по теме:

  • Первые фильмы братьев Люмьер / The Lumire Brothers’ First Films (1895–1897) DVD5 скачать через торрент бесплатно


    • Комментарии (0):

      Информация

      Информация

        Посетители, находящиеся в группе Гости, не могут оставлять комментарии в данной новости.

        ↓ Меню



        ↓ Опрос

        А Вы добавили сайт в закладки?
        Да
        Не


        Top 10 за неделю (Фильмы)