.
Авторизация | Регистрация
» » Семь человек с этого момента / В семи трупах отсюда / Seven Men from Now (1956) DVD5 | P, L1 торрент скачать бесплатно




    Семь человек с этого момента / В семи трупах отсюда / Seven Men from Now (1956) DVD5 | P, L1 торрент скачать бесплатно

    Опубликовал: Админ | Дата: 27-02-2015, 11:10 | Просмотров: 248


    Детально о кино
    Русское название:Семь человек с этого момента/В семи трупах отсюда
    Русское название в мировом прокате:Seven Men from Now
    Создали в:1956
    Категория жанра:Вестерн
    Главный режиссер:Бадд Боттичер
    Актеры:Рэндольф Скотт, Гэйл Рассел, Ли Марвин, Уолтер Рид, Джон Ларч, Дон Ред Бэрри, Фред Грэхам, Джон Берадино, Джон Филлипс, Чак Роберсон, Стюарт Уитман, Памела Дункан, Фред Шермен, Джон Ларч, Кап Сомерс, Джордж Соуардс, Чик Хэннон, Чет Бранденбург, Клифф Лайонс, Стивен Митчел
    Сюжет фильма:Бен Страйд бывший шериф города Силвер Спрингс, преследует семерых человек, повинных в убийстве его жены во время ограбления офиса компании Уэллс Фарго. По пути он встречает супружескую пару переселенцев, чей фургон застрял в грязи. Оказав помощь, он соглашается отправиться в путь вместе с ними. Во-первых, ему это по дороге, а во-вторых, его привлекает миловидность Энн Грир. В пути они встречают еще двоих людей, преследующих грабителей – это известный экс-шерифу матерый правонарушитель Билл Мастерс со своим напарником Клитом. Если Страйдом движет месть, то Мастерс хочет заполучить золото. На время цели и пути столь разных людей сходятся, и они продолжают ехать вместе с фургоном переселенцев, которые так же направляются в Силвер Спрингс, туда, где по сведениям Мастерса скрываются налетчики.

    Снималось в:США
    Киностудия:Batjac Productions
    Время просмотра:01:14:51
    Перевод текста:Профессиональный многоголосый, любительский одноголосый
    Файл
    Кодек для видео:MPEG-2
    Качество фильма:DVD-9
    Информация о видео:MPEG2, PAL, 16:9 (720x576) VBR, 25 кадр/с
    Информация о звуке:Русский/Английский/Немецкий DD 2.0 (192Kbps)
    Перевод

    1. Профессиональный многоголосый
    2. Любительский одноголосый (funny77)
    3. Английский
    4. Немецкий
    Меню
    DVDInfo
    Title:
    Size: 7.10 Gb ( 7 442 054 KBytes ) - DVD-9
    Enabled regions: 1, 2, 3, 4, 5, 6, 7, 8
    VTS_01 :
    Play Length: 01:52:36
    Video: PAL 16:9 (720x576) VBR, Auto PanScan
    Audio:
    Russian (Dolby AC3, 2 ch)
    Russian (Dolby AC3, 2 ch)
    Russian (Dolby AC3, 2 ch)
    Russian (Dolby AC3, 2 ch)
    English (Dolby AC3, 2 ch)
    Menu Video:
    PAL 4:3 (704x576) VBR
    Menu English Language Unit :
    Root Menu
    MediaInfo
    Общее
    Полное имя : D:ААА2Семь человек с этого моментаVIDEO_TSVTS_01_1.VOB
    Формат : MPEG-PS
    Размер файла : 1000 Мбайт
    Продолжительность : 19 м.
    Режим общего битрейта : Переменный
    Общий поток : 7125 Кбит/сек
    Видео
    Идентификатор : 224 (0xE0)
    Формат : MPEG Video
    Версия формата : Version 2
    Профиль формата : Main@Main
    Параметр BVOP формата : Да
    Параметр матрицы формата : Выборочная
    Параметр GOP формата : Variable
    Продолжительность : 19 м.
    Вид битрейта : Переменный
    Битрейт : 6216 Кбит/сек
    Максимальный битрейт : 9800 Кбит/сек
    Ширина : 720 пикселей
    Высота : 576 пикселей
    Соотношение сторон : 16:9
    Частота кадров : 25,000 кадров/сек
    Стандарт вещания : Component
    Цветовое пространство : YUV
    Субдискретизация насыщенности : 4:2:0
    Битовая глубина : 8 бит
    Тип развёртки : Прогрессивная
    Порядок развёртки : Верхнее поле первое
    Метод сжатия : С потерями
    Бит/(Пиксели*Кадры) : 0.599
    TimeCode_FirstFrame : 00:59:58:00
    TimeCode_Source : Group of pictures t_head
    Размер потока : 872 Мбайт (87%)
    Основные цвета : BT.601 PAL
    Характеристики трансфера : BT.470 System B, BT.470 System G
    Коэффициенты матрицы : BT.601
    Аудио #1
    Идентификатор : 189 (0xBD)-128 (0x80)
    Формат : AC-3
    Формат/Информация : Audio Coding 3
    Расширение режима : CM (complete main)
    Параметр Endianness формата : Big
    Режим смешивания : DVD-Video
    Продолжительность : 19 м.
    Вид битрейта : Постоянный
    Битрейт : 192 Кбит/сек
    Каналы : 2 канала
    Расположение каналов : Front: L R
    Частота : 48,0 КГц
    Битовая глубина : 16 бит
    Метод сжатия : С потерями
    Размер потока : 26,9 Мбайт (3%)
    Аудио #2
    Идентификатор : 189 (0xBD)-129 (0x81)
    Формат : AC-3
    Формат/Информация : Audio Coding 3
    Расширение режима : CM (complete main)
    Параметр Endianness формата : Big
    Режим смешивания : DVD-Video
    Продолжительность : 19 м.
    Вид битрейта : Постоянный
    Битрейт : 192 Кбит/сек
    Каналы : 2 канала
    Расположение каналов : Front: L R
    Частота : 48,0 КГц
    Битовая глубина : 16 бит
    Метод сжатия : С потерями
    Размер потока : 26,9 Мбайт (3%)
    Аудио #3
    Идентификатор : 189 (0xBD)-130 (0x82)
    Формат : AC-3
    Формат/Информация : Audio Coding 3
    Расширение режима : CM (complete main)
    Параметр Endianness формата : Big
    Режим смешивания : DVD-Video
    Продолжительность : 19 м.
    Вид битрейта : Постоянный
    Битрейт : 192 Кбит/сек
    Каналы : 2 канала
    Расположение каналов : Front: L R
    Частота : 48,0 КГц
    Битовая глубина : 16 бит
    Метод сжатия : С потерями
    Размер потока : 26,9 Мбайт (3%)
    Аудио #4
    Идентификатор : 189 (0xBD)-131 (0x83)
    Формат : AC-3
    Формат/Информация : Audio Coding 3
    Расширение режима : CM (complete main)
    Параметр Endianness формата : Big
    Режим смешивания : DVD-Video
    Продолжительность : 19 м.
    Вид битрейта : Постоянный
    Битрейт : 192 Кбит/сек
    Каналы : 2 канала
    Расположение каналов : Front: L R
    Частота : 48,0 КГц
    Битовая глубина : 16 бит
    Метод сжатия : С потерями
    Размер потока : 26,9 Мбайт (3%)
    Меню
    Скриншоты для ознакомления

    Залил: YArl

    Онлайн видео Семь человек с этого момента


    Размер скачиваемого торрента: 3.72 GB (3994644480 Bytes)

    Семь человек с этого момента/В семи трупах отсюда/Seven Men from Now (1956) DVD5 | P, L1 торрент скачать бесплатно
    загрузка...
    Рейтинг →
     (голосов: 1, оценка 5/5, голосовать можно 1 раз )

    Другие торренты по теме:

  • Семь психопатов / Seven Psychopaths (2012) DVDRip | Чистый звук торрент скачать бесплатно
  • Семья почемучек / The Why Why family (1996) DVB торрент скачать бесплатно
  • Честь семьи Прицци / Prizzis Honor (1985) HDTVRip | А торрент скачать бесплатно
  • Семь дней / Sebeun deijeu / Seven days (2007) BDRip | L2 торрент скачать бесплатно
  • Пираты семи морей: Чёрная борода / Blackbeard (2006) DVDRip | P торрент скачать бесплатно
  • Семь жизней / Seven Pounds (2008) BDRip-AVC | iPad торрент скачать бесплатно
  • Семь дней в Утопии / Seven Days in Utopia (2011) HDRip торрент скачать бесплатно
  • Кралина М.В. - Логика. Для обучения детей в семье, детском саду и далее...PDF от RG Superdetki торрент скачать бесплатно


    • Комментарии (0):

      Информация

      Информация

        Посетители, находящиеся в группе Гости, не могут оставлять комментарии в данной новости.

        ↓ Меню



        ↓ Опрос

        А Вы добавили сайт в закладки?
        Да
        Не


        Top 10 за неделю (Фильмы)