.
Авторизация | Регистрация
» » Киборг / Cyborg (1989) BDRip от 0ptimus | P, P2, A скачать через торрент бесплатно




    Киборг / Cyborg (1989) BDRip от 0ptimus | P, P2, A скачать через торрент бесплатно

    Опубликовал: Админ | Дата: 27-02-2015, 11:10 | Просмотров: 159


    Детально о кино
    Русское название:Киборг
    Русское название в мировом прокате:Cyborg
    Создали в:1989
    Категория жанра:Фантастика, боевик
    Главный режиссер:Альберт Пьюн
    Актеры:Жан-Клод Ван Дамм, Дебора Рихтер, Винсент Клин, Алекс Дэниелс, Дэйл Хэддон, Блэйз Лунг, Ральф Мёллер, Хейли Петерсон, Джексон Скала Пинкни, Джэнис Грейсер
    Сюжет фильма:
    Мрачное будущее… Соединенные Штаты Америки лежат в руинах. Анархия, голод, геноцид… Следом пришла тихая смерть — неведомая чума стирает население всей планеты. Выжившие ученые в Атланте подобрались вплотную к открытию противоядия. Но им катастрофически не хватает данных. То, что им необходимо есть в Нью-Йорке, но туда нет пути. Весь мир между крохотными клочками цивилизации превратился в отравленную пустыню, населенную лютыми сворами отморозков. Выжить в ней может только существо с рефлексами хищника, молниеносной реакцией и отточенными как меч самурая навыками боя!

    Снималось в:США
    Киностудия:Cannon Entertainment, Golan, Globus Production
    Время просмотра:01:26:24
    Перевод текста:Профессиональный многоголосый, авторский одноголосый
    Файл
    Кодек для видео:XviD
    Качество фильма:BDRip
    Информация о видео:XviD, 2014 Кбит/с, 720x384, 23.976 кадр/с
    Информация о звуке:
    • №1: Русский (AC3, 2 ch, 192 Кбит/с) Профессиональный многоголосый R5
    • №2: Английский (AC3, 2 ch, 192 Кбит/с)
    Отдельно:
    • №3: Русский (AC3, 2 ch, 192 Кбит/с) Профессиональный многоголосый РТР
    • №4: Русский (AC3, 2 ch, 192 Кбит/с) Профессиональный двухголосый ТВ-6
    • №5: Русский (AC3, 2 ch, 192 Кбит/с) Авторский одноголосый Андрей Гаврилов
    • №6: Русский (AC3, 2 ch, 192 Кбит/с) Авторский одноголосый Вартан Дохалов
    • №7: Русский (AC3, 2 ch, 192 Кбит/с) Авторский одноголосый Леонид Володарский
    • №8: Украинский (AC3, 2 ch, 192 Кбит/с) Профессиональный многоголосый 1+1
    Субтитры:Русские (форсированные), русские (полные), английские
    Mediainfo

    Полное имя : Kiborg.1989.XviD.BDRip.0ptimus.avi
    Формат : AVI
    Формат/Информация : Audio Video Interleave
    Размер файла : 1,46 Гбайт
    Продолжительность : 1 ч. 26 м.
    Общий поток : 2412 Кбит/сек
    Название фильма : Киборг/Cyborg 1989 -=BDRip=-
    Режиссёр : 0ptimus
    Жанр : Фантастика, боевик
    Программа кодирования : VirtualDubMod 1.5.10.2 (build 2540/release)
    Примечание : Source - Blu-Ray (1080p)
    Видео
    Идентификатор : 0
    Формат : MPEG-4 Visual
    Профиль формата : Advanced Simple@L5
    Параметр BVOP формата : 2
    Параметр QPel формата : Нет
    Параметр GMC формата : Без точки перехода
    Параметр матрицы формата : Выборочная
    Идентификатор кодека : XVID
    Идентификатор кодека/Подсказка : XviD
    Продолжительность : 1 ч. 26 м.
    Битрейт : 2014 Кбит/сек
    Ширина : 720 пикселей
    Высота : 384 пикселя
    Соотношение сторон : 1,85:1
    Частота кадров : 23,976 кадра/сек
    Цветовое пространство : YUV
    Субдискретизация насыщенности : 4:2:0
    Битовая глубина : 8 бит
    Тип развёртки : Прогрессивная
    Метод сжатия : С потерями
    Бит/(Пиксели*Кадры) : 0.304
    Размер потока : 1,22 Гбайт (83%)
    Библиотека кодирования : XviD 64
    Аудио #1
    Идентификатор : 1
    Формат : AC-3
    Формат/Информация : Audio Coding 3
    Расширение режима : CM (complete main)
    Параметр Endianness формата : Big
    Идентификатор кодека : 2000
    Продолжительность : 1 ч. 26 м.
    Вид битрейта : Постоянный
    Битрейт : 192 Кбит/сек
    Каналы : 2 канала
    Расположение каналов : Front: L R
    Частота : 48,0 КГц
    Битовая глубина : 16 бит
    Метод сжатия : С потерями
    Размер потока : 119 Мбайт (8%)
    Выравнивание : Разделение по промежуткам
    Продолжительность промежутка : 42 мс. (1,00 видеокадр)
    Время предзагрузки промежутка : 500 мс.
    Аудио #2
    Идентификатор : 2
    Формат : AC-3
    Формат/Информация : Audio Coding 3
    Расширение режима : CM (complete main)
    Параметр Endianness формата : Big
    Идентификатор кодека : 2000
    Продолжительность : 1 ч. 26 м.
    Вид битрейта : Постоянный
    Битрейт : 192 Кбит/сек
    Каналы : 2 канала
    Расположение каналов : Front: L R
    Частота : 48,0 КГц
    Битовая глубина : 16 бит
    Метод сжатия : С потерями
    Размер потока : 119 Мбайт (8%)
    Выравнивание : Разделение по промежуткам
    Продолжительность промежутка : 42 мс. (1,00 видеокадр)
    Время предзагрузки промежутка : 500 мс.
    Скриншоты для ознакомления



    Релиз подготовил:
    Размер скачиваемого торрента: 2.15 GB (2309694343 Bytes)

    Киборг/Cyborg (1989) BDRip от 0ptimus | P, P2, A скачать через торрент бесплатно
    загрузка...
    Рейтинг →
     (голосов: 1, оценка 4/5, голосовать можно 1 раз )

    Другие торренты по теме:

  • Киборг / Kiborg - Дискография (2001-2011) MP3 торрент скачать бесплатно
  • 009 король: Киборг / 009 Re: Cyborg (2012) BDRip 720p | LE-Production Anilibria скачать через торрент бесплатно
  • Киборг-охотник 2 / Cyber-Tracker 2 (1995) DVDRip скачать через торрент бесплатно
  • Киборг / Cyborg (1989) HDRip от Scarabey | Р торрент скачать бесплатно
  • Киборг / Cyborg (1989) BDRip от HQCLUB торрент скачать бесплатно
  • Киборг / Cyborg (1989) BDRip-AVC от 0ptimus | P, P2, A торрент скачать бесплатно
  • 009 король: Киборг / 009 Re: Cyborg (2012) BDRip 1080p от Ash61 | 3D-Video | halfOU | L торрент скачать бесплатно
  • Киборг-полицейский / Cyborg Cop (1993) DVDRip скачать через торрент бесплатно


    • Комментарии (0):

      Информация

      Информация

        Посетители, находящиеся в группе Гости, не могут оставлять комментарии в данной новости.

        ↓ Меню



        ↓ Опрос

        А Вы добавили сайт в закладки?
        Да
        Не


        Top 10 за неделю (Фильмы)