.
Авторизация | Регистрация
» » Визит к Минотавру (1987) SATRip от New-Team торрент скачать бесплатно




    Визит к Минотавру (1987) SATRip от New-Team торрент скачать бесплатно

    Опубликовал: Админ | Дата: 27-02-2015, 11:10 | Просмотров: 333


    Снималось в: СССР/Студия Горького, Гостелерадио
    Категория жанра: криминал, детектив, приключения...
    Создали в: 1987
    Время просмотра: 01:10:00/серия
    Перевод текста:Не требуется
    Субтитры подготовлены: нет
    Оригинальная аудиодорожка: русский
    Главный режиссер: Эльдор Уразбаев
    Актеры: Сергей Шакуров, Анна Каменкова, Владимир Самойлов, Лаймонас Норейка, Ростислав Плятт, Михаил Пуговкин, Нина Меньшикова, Валентин Гафт, Александр Филиппенко, Лев Борисов...
    Роли дублировали: Владимир Сафронов, Игорь Тарадайкин, Рудольф Панков, Владимир Ферапонтов, Сергей Быстрицкий...
    Сюжет: В основе детективной истории - поиски пропавшей скрипки Антонио Страдивари. Это одна сюжетная линия фильма, но с ней существует вторая - историческая, она переносит зрителя в XVII век и посвящена жизни Мастера и его работе над скрипкой. Когда-то Иконников имел шанс стать первой скрипкой. Но этого не произошло - конкурс выиграл его друг Поляков. Друг перестал быть другом, а прекрасный исполнитель, не желая быть вторым или третьим, нашел себе хобби и посвятил оставшиеся года изучению змей. Прошло много лет. Однажды во время отсутствия скрипача и педагога Льва Иосифовича Полякова была ограблена его квартира. Среди множества ценных и малоценных вещей, которых лишился профессор, была скрипка Санта-Мария, одна из лучших работ Антонио Страдивари, созданная более 260-ти лет тому назад в период творческого расцвета мастера... По одноименному роману Аркадия и Георгия Вайнеров.

    Качество фильма: SATRip /DVB- трансляция телеканала Звезда
    Тип видео: AVI
    Информация о видео: 688x528 (4:3), 25.000 fps, XviD ~ 1800 kbps avg, 0.198 bit/pixel
    Информация о звуке: 48 kHz, Dolby AC3, 2 ch, 192 kbps,русский
    Раздача от:
    MediaInfo

    Общее
    Полное имя : Vizit.k.Minotavru.1987.O.SATRip_New-Team_by_keeper1.avi
    Формат : AVI
    Формат/Информация : Audio Video Interleave
    Размер файла : 1,01 Гбайт
    Продолжительность : 1 ч. 12 м.
    Общий поток : 1996 Кбит/сек
    Программа кодирования : VirtualDubModRus 1.5.10.2 (build 2542/release)
    Библиотека кодирования : VirtualDubMod build 2542/release
    Видео
    Идентификатор : 0
    Формат : MPEG-4 Visual
    Профиль формата : Advanced Simple@L5
    Параметр BVOP формата : 1
    Параметр QPel формата : Нет
    Параметр GMC формата : Без точки перехода
    Параметр матрицы формата : Выборочная
    Идентификатор кодека : XVID
    Идентификатор кодека/Подсказка : XviD
    Продолжительность : 1 ч. 12 м.
    Битрейт : 1795 Кбит/сек
    Ширина : 688 пикселей
    Высота : 528 пикселей
    Соотношение сторон : 4:3
    Частота кадров : 25,000 кадров/сек
    Цветовое пространство : YUV
    Субдискретизация насыщенности : 4:2:0
    Битовая глубина : 8 бит
    Тип развёртки : Прогрессивная
    Метод сжатия : С потерями
    Бит/(Пиксели*Кадры) : 0.198
    Размер потока : 931 Мбайт (90%)
    Библиотека кодирования : XviD 73
    Аудио
    Идентификатор : 1
    Формат : AC-3
    Формат/Информация : Audio Coding 3
    Расширение режима : CM (complete main)
    Параметр Endianness формата : Big
    Идентификатор кодека : 2000
    Продолжительность : 1 ч. 12 м.
    Вид битрейта : Постоянный
    Битрейт : 192 Кбит/сек
    Каналы : 2 канала
    Расположение каналов : Front: L R
    Частота : 48,0 КГц
    Битовая глубина : 16 бит
    Метод сжатия : С потерями
    Размер потока : 99,6 Мбайт (10%)
    Выравнивание : Разделение по промежуткам
    Продолжительность промежутка : 40 мс. (1,00 видеокадр)
    Время предзагрузки промежутка : 500 мс.

    Скриншоты для ознакомления:



    Сравнение:

    http://alt.rutor.org/torrent/13263/
    http://screenshotcomparison.com/comparison/96580
    Дело в том, что фирма, которая выпустила 2хDVD9, взяла исходником, скорее всего, простую видеокассету VHS, понадеявшись на популярность фильма. Видимо денег захотелось. Трансляция телеканала Звезда по качеству намного превосходит DVD релиз и все предыдущие трансляции этого фильма по четкости и наполнению кадра. Видимо у Звезды был лучший исходник (возможно S-VHS). Респект Звезде. Трансляция ТВЦ не стояла даже рядом: неверная цветопередача, чёткость хуже, а также неполный кадр.


    Онлайн видео Визит к Минотавру (1987) SATRip от New


    Размер скачиваемого торрента: 4.73 GB (5079011328 Bytes)

    Визит к Минотавру (1987) SATRip от New-Team торрент скачать бесплатно
    загрузка...
    Рейтинг →
     (голосов: 1, оценка 4/5, голосовать можно 1 раз )

    Другие торренты по теме:

  • Тайные знаки. Странные явления. Пришельцы. Необъявленный визит (2011) SATRip от Generalfilm торрент скачать бесплатно
  • Вайнер Аркадий, Вайнер Георгий - Визит к Минотавру (2013) MP3 торрент скачать бесплатно
  • Право голоса. Дать мигрантам по визе (2013) WEBRip торрент скачать бесплатно
  • Визит оркестра / Bikur Ha-Tizmoret / The Bands visit (2007) DVDRip от MediaClub | P скачать через торрент бесплатно
  • Визит инспектора скачать через торрент бесплатно
  • Визит после полуночи скачать через торрент бесплатно
  • Уральские пельмени. Виза есть - ума не надо (Эфир от 12.12.2014) скачать через торрент бесплатно
  • Визит / The Visit (2015) WEBRip 1080p | L1 скачать торрент бесплатно


    • Комментарии (0):

      Информация

      Информация

        Посетители, находящиеся в группе Гости, не могут оставлять комментарии в данной новости.

        ↓ Меню



        ↓ Опрос

        А Вы добавили сайт в закладки?
        Да
        Не


        Top 10 за неделю (Фильмы)