.
Авторизация | Регистрация
Хочешь лучшие торренты? Добавь свой email!
Добавить
» » Могильный Хэллоуин / Grave Halloween (2013) WEBDLRip-AVC | iTunes скачать через торрент бесплатно




    Могильный Хэллоуин / Grave Halloween (2013) WEBDLRip-AVC | iTunes скачать через торрент бесплатно

    Опубликовал: Админ | Дата: 27-02-2015, 11:10 | Просмотров: 144



    Детально о кино
    Русское название: Могильный Хэллоуин
    Русское название в мировом прокате: Grave Halloween
    Создали в: 2013
    Категория жанра:ужасы
    Главный режиссер: Стивен Р. Монро
    Актеры: Кейтлин Вонг, Касси Томсон, Деян Лойола, Грэхэм Уордл, Джесси Вилер, Том Стивенс, Джеффри Баллард, Хиро Канагава, Кеван Охтци

    Сюжет фильма:Группа подростков отправилась в Лес Смерти. Вскоре им приходится пожалеть о том, что они пришли в это место…



    Снималось в: Канада/Haunted Pictures
    Время просмотра: 01:29:24
    Перевод текста:Профессиональный(многоголосый, закадровый)-iTunes

    Файл
    Качество фильма:WEBDLRip-AVC
    Тип видео: MKV
    Информация о видео: MPEG4/AVC, 720x400 (16:9), 1663 Кбит/сек, 23.976 кадра/сек
    Информация о звуке 1: AC3, 6 каналов, 384 Кбит/сек |Русский
    Информация о звуке 2: AC3, 6 каналов, 384 Кбит/сек |Английский
    Навигация по главам: Есть

    MediaInfo:
    Общее
    Уникальный идентификатор : 184621124224034474976673101026466212388 (0x8AE4BC32DA497403BD6A7830FFF82A24)
    Полное имя : Grave Halloween. (2013) WEBDLRip-AVC.mkv
    Формат : Matroska
    Версия формата : Version 2
    Размер файла : 1,51 Гбайт
    Продолжительность : 1 ч. 29 м.
    Общий поток : 2420 Кбит/сек
    Название фильма : Grave Halloween. 2013
    Дата кодирования : UTC 2014-10-20 09:27:28
    Программа кодирования : mkvmerge v5.8.0 (;No Sleep/Pillow;) built on Sep 2 2012 15:37:04
    Библиотека кодирования : libebml v1.2.3 + libmatroska v1.3.0

    Видео
    Идентификатор : 1
    Формат : AVC
    Формат/Информация : Advanced Video Codec
    Профиль формата : High@L4.1
    Параметр CABAC формата : Да
    Параметр ReFrames формата : 4 кадра
    Идентификатор кодека : V_MPEG4/ISO/AVC
    Битрейт : 1663 Кбит/сек
    Ширина : 720 пикселей
    Высота : 400 пикселей
    Соотношение сторон : 16:9
    Режим частоты кадров : Переменный
    Цветовое пространство : YUV
    Субдискретизация насыщенности : 4:2:0
    Битовая глубина : 8 бит
    Тип развёртки : Прогрессивная
    Библиотека кодирования : x264 core 130 r2273 b3065e6
    Настройки программы : cabac=1/ref=1/deblock=1:0:0/analyse=0x3:0x113/me=hex/subme=2/psy=1/psy_rd=1.00:0.00/mixed_ref=0/me_range=16/chroma_me=1/trellis=0/8x8dct=1/cqm=0/deadzone=21,11/fast_pskip=1/chroma_qp_offset=0/threads=48/lookahead_threads=3/sliced_threads=0/nr=0/decimate=1/interlaced=0/bluray_compat=0/constrained_intra=0/bframes=3/b_pyramid=2/b_adapt=1/b_bias=0/direct=1/weightb=1/open_gop=0/weightp=1/keyint=240/keyint_min=24/scenecut=40/intra_refresh=0/rc_lookahead=10/rc=abr/mbtree=1/bitrate=1663/ratetol=1.0/qcomp=0.60/qpmin=0/qpmax=69/qpstep=4/vbv_maxrate=62500/vbv_bufsize=78125/nal_hrd=none/ip_ratio=1.40/aq=1:1.00
    Язык : English
    Default : Да
    Forced : Нет
    Основные цвета : BT.601 NTSC
    Характеристики трансфера : BT.709
    Коэффициенты матрицы : BT.601

    Аудио #1
    Идентификатор : 2
    Формат : AC-3
    Формат/Информация : Audio Coding 3
    Расширение режима : CM (complete main)
    Параметр Endianness формата : Big
    Идентификатор кодека : A_AC3
    Продолжительность : 1 ч. 29 м.
    Вид битрейта : Постоянный
    Битрейт : 384 Кбит/сек
    Каналы : 6 каналов
    Расположение каналов : Front: L C R, Side: L R, LFE
    Частота : 48,0 КГц
    Битовая глубина : 16 бит
    Метод сжатия : С потерями
    Размер потока : 246 Мбайт (16%)
    Заголовок : AC3 5.1 | 384 Kbps | iTunes
    Язык : Russian
    Default : Да
    Forced : Нет

    Аудио #2
    Идентификатор : 3
    Формат : AC-3
    Формат/Информация : Audio Coding 3
    Расширение режима : CM (complete main)
    Параметр Endianness формата : Big
    Идентификатор кодека : A_AC3
    Продолжительность : 1 ч. 29 м.
    Вид битрейта : Постоянный
    Битрейт : 384 Кбит/сек
    Каналы : 6 каналов
    Расположение каналов : Front: L C R, Side: L R, LFE
    Частота : 48,0 КГц
    Битовая глубина : 16 бит
    Метод сжатия : С потерями
    Размер потока : 246 Мбайт (16%)
    Заголовок : AC3 5.1 | 384 Kbps | Original
    Язык : English
    Default : Нет
    Forced : Нет

    Меню
    00:00:00.000 : en:Chapter 1
    00:04:40.980 : en:Chapter 2
    00:11:10.036 : en:Chapter 3
    00:19:04.810 : en:Chapter 4
    00:26:01.393 : en:Chapter 5
    00:32:37.121 : en:Chapter 6
    00:41:26.150 : en:Chapter 7
    00:52:01.818 : en:Chapter 8
    01:01:48.538 : en:Chapter 9
    01:10:28.724 : en:Chapter 10
    01:22:22.938 : en:Chapter 11
    01:25:15.944 : en:Chapter 12



    Релиз подготовил:

    Онлайн видео Могильный Хэллоуин


    Размер скачиваемого торрента: 1.51 GB (1622787212 Bytes)

    Могильный Хэллоуин/Grave Halloween (2013) WEBDLRip-AVC | iTunes скачать через торрент бесплатно
    загрузка...
    Рейтинг →
     (голосов: 1, оценка 5/5, голосовать можно 1 раз )

    Другие торренты по теме:



      Комментарии (0):

      Информация

      Информация

        Посетители, находящиеся в группе Гости, не могут оставлять комментарии в данной новости.

        ↓ Меню



        ↓ Опрос

        А Вы добавили сайт в закладки?
        Да
        Не


        Top 10 за месяц (Фильмы)