.
Авторизация | Регистрация
Хочешь лучшие торренты? Добавь свой email!
Добавить
» » Крупная рыба / Big Fish (2003) BDRip 720p by msltel | D, P, P2, A, L1 скачать через торрент бесплатно




    Крупная рыба / Big Fish (2003) BDRip 720p by msltel | D, P, P2, A, L1 скачать через торрент бесплатно

    Опубликовал: Админ | Дата: 27-02-2015, 11:10 | Просмотров: 162


    Создали в: 2003
    Снималось в: США
    Категория жанра: фэнтези, драма, приключения
    Время просмотра: 02:05:09
    Перевод текста: дублированный, профессиональный многоголосый, профессиональный двухголосый, авторский, любительский одноголосый
    Субтитры: русские, английские (все отдельно)
    Главный режиссёр: Тим Бёртон
    Актеры: Эван МакГрегор, Альберт Финни, Билли Крадап, Джессика Лэнг, Хелена Бонем Картер, Элисон Ломан, Роберт Гийом, Марион Котийяр, Мэттью МакГрори, Дэвид Денман, Мисси Пайл, Стив Бушеми, Дэнни ДеВито, Майли Сайрус
    Сюжет: В основу этой приключенческой ленты положен роман Дэниела Уоллеса Большая рыба: роман мифических пропорций. Умирает отец, о жизни которого сын хочет узнать как можно больше, собирая истории о нём. Сын пытается воссоздать ускользающую жизнь отца в серии легенд и мифов, которые тот придумывает на основе разрозненных фактов. Взлёты и падения в жизни человека в итоге предстают в неожиданном ракурсе...

    Качество фильма: BDRip 720pСравнение с исходником
    Тип видео: MKV
    Информация о видео кодек: H.264
    Информация о видео: 1280x694, 7052 kbps, 23.976 кадра/с, 0.331 bpp
    Информация о звуке 1:русский, AC3, 448 kbps, 6 ch, 48 kHz дублированный
    Информация о звуке 2:русский, AC3, 448 kbps, 6 ch, 48 kHz профессиональный многоголосый
    Информация о звуке 3:русский, AC3, 448 kbps, 6 ch, 48 kHz профессиональный двухголосый, Tycoon
    Информация о звуке 4:русский, AC3, 448 kbps, 6 ch, 48 kHz профессиональный двухголосый, Пётр Гланц и Инна Королёва
    Информация о звуке 5:русский, AC3, 448 kbps, 6 ch, 48 kHz авторский, Андрей Гаврилов
    Информация о звуке 6:русский, AC3, 448 kbps, 6 ch, 48 kHz авторский, Юрий Сербин
    Информация о звуке 7:русский, AC3, 448 kbps, 6 ch, 48 kHz авторский, Михаил Чадов
    Информация о звуке 8:русский, AC3, 448 kbps, 6 ch, 48 kHz любительский одноголосый, Ронин
    Отдельные файлы
    Информация о звуке:русский, DTS, 1509 kbps, 6 ch, 48 kHz профессиональный многоголосый
    Информация о звуке:русский, DTS, 1509 kbps, 6 ch, 48 kHz авторский, Андрей Гаврилов
    Информация о звуке:русский, DTS, 1509 kbps, 6 ch, 48 kHz авторский, Юрий Сербин
    Информация о звуке:русский, DTS, 1509 kbps, 6 ch, 48 kHz авторский, Михаил Чадов
    Информация о звуке:английский, AC3, 448 kbps, 6 ch, 48 kHz оригинал
    Награды
    Жорж, 2005 год
    Номинации (1):
    Лучший развлекательный фильм
    Оскар, 2004 год
    Номинации (1):
    Лучший оригинальный саундтрек
    Золотой глобус, 2004 год
    Номинации (4):
    Лучший фильм (комедия или мюзикл)
    Лучшая мужская роль второго плана (Альберт Финни)
    Лучшая песня — Man of the Hour
    Лучший саундтрек
    Британская академия, 2004 год
    Номинации (7):
    Лучший фильм
    Лучшая мужская роль второго плана (Альберт Финни)
    Лучший адаптированный сценарий
    Лучшие визуальные эффекты
    Лучший грим/прически
    Лучшая работа художника-постановщика
    Премия имени Дэвида Лина за достижения в режиссуре (Тим Бёртон)
    Сатурн, 2004 год
    Номинации (2):
    Лучший фэнтези-фильм
    Лучший актер (Альберт Финни)

    MediaInfo
    frame I:1520 Avg QP:16.51 size:123574
    frame P:32308 Avg QP:17.52 size: 67531
    frame B:146212 Avg QP:19.62 size: 30429
    Общее
    Полное имя : D:VideoKrupnaja ryba.2003.BDRip.720pKrupnaja ryba.2003.AVO.rus.А.Гаврилов.dts
    Формат : DTS
    Формат/Информация : Digital Theater Systems
    Размер файла : 1,32 Гбайт
    Продолжительность : 2 ч. 5 м.
    Режим общего битрейта : Постоянный
    Общий поток : 1509 Кбит/сек
    Аудио
    Формат : DTS
    Формат/Информация : Digital Theater Systems
    Режим : 16
    Параметр Endianness формата : Big
    Продолжительность : 2 ч. 5 м.
    Вид битрейта : Постоянный
    Битрейт : 1509 Кбит/сек
    Каналы : 6 каналов
    Расположение каналов : Front: L C R, Side: L R, LFE
    Частота : 48,0 КГц
    Битовая глубина : 16 бит
    Метод сжатия : С потерями
    Размер потока : 1,32 Гбайт
    Общее
    Полное имя : D:VideoKrupnaja ryba.2003.BDRip.720pKrupnaja ryba.2003.AVO.rus.М.Чадов.dts
    Формат : DTS
    Формат/Информация : Digital Theater Systems
    Размер файла : 1,32 Гбайт
    Продолжительность : 2 ч. 5 м.
    Режим общего битрейта : Постоянный
    Общий поток : 1510 Кбит/сек
    Аудио
    Формат : DTS
    Формат/Информация : Digital Theater Systems
    Режим : 16
    Параметр Endianness формата : Big
    Продолжительность : 2 ч. 5 м.
    Вид битрейта : Постоянный
    Битрейт : 1510 Кбит/сек
    Каналы : 6 каналов
    Расположение каналов : Front: L C R, Side: L R, LFE
    Частота : 48,0 КГц
    Битовая глубина : 24 бит
    Метод сжатия : С потерями
    Размер потока : 1,32 Гбайт (100%)
    Общее
    Полное имя : D:VideoKrupnaja ryba.2003.BDRip.720pKrupnaja ryba.2003.AVO.rus.Ю.Сербин.dts
    Формат : DTS
    Формат/Информация : Digital Theater Systems
    Размер файла : 1,32 Гбайт
    Продолжительность : 2 ч. 5 м.
    Режим общего битрейта : Постоянный
    Общий поток : 1509 Кбит/сек
    Аудио
    Формат : DTS
    Формат/Информация : Digital Theater Systems
    Режим : 16
    Параметр Endianness формата : Big
    Продолжительность : 2 ч. 5 м.
    Вид битрейта : Постоянный
    Битрейт : 1509 Кбит/сек
    Каналы : 6 каналов
    Расположение каналов : Front: L C R, Side: L R, LFE
    Частота : 48,0 КГц
    Битовая глубина : 24 бит
    Метод сжатия : С потерями
    Размер потока : 1,32 Гбайт (100%)
    Общее
    Уникальный идентификатор : 222383520777987632018991164483011841349 (0xA74D82181D52C45A99F6E4A7CEEF8D45)
    Полное имя : D:VideoKrupnaja ryba.2003.BDRip.720pKrupnaja ryba.2003.BDRip.720p.mkv
    Формат : Matroska
    Версия формата : Version 4/Version 2
    Размер файла : 9,49 Гбайт
    Продолжительность : 2 ч. 5 м.
    Общий поток : 10,9 Мбит/сек
    Дата кодирования : UTC 2014-10-22 04:49:07
    Программа кодирования : mkvmerge v6.9.1 (;Blue Panther;) 64bit built on Apr 18 2014 18:23:38
    Библиотека кодирования : libebml v1.3.0 + libmatroska v1.4.1
    Видео
    Идентификатор : 1
    Формат : AVC
    Формат/Информация : Advanced Video Codec
    Профиль формата : High@L4.1
    Параметр CABAC формата : Да
    Параметр ReFrames формата : 9 кадров
    Идентификатор кодека : V_MPEG4/ISO/AVC
    Продолжительность : 2 ч. 5 м.
    Битрейт : 7052 Кбит/сек
    Ширина : 1280 пикселей
    Высота : 694 пикселя
    Соотношение сторон : 1,85:1
    Режим частоты кадров : Постоянный
    Частота кадров : 23,976 кадра/сек
    Цветовое пространство : YUV
    Субдискретизация насыщенности : 4:2:0
    Битовая глубина : 8 бит
    Тип развёртки : Прогрессивная
    Бит/(Пиксели*Кадры) : 0.331
    Размер потока : 6,16 Гбайт (65%)
    Заголовок : BDRip -- STarankov
    Библиотека кодирования : x264 core 142 r2431 ac76440
    Залил: msltel

    Онлайн видео Крупная рыба


    Размер скачиваемого торрента: 15.16 GB (16274141298 Bytes)


    Крупная рыба/Big Fish (2003) BDRip 720p by msltel | D, P, P2, A, L1 скачать через торрент бесплатно
    загрузка...
    Рейтинг →
     (голосов: 1, оценка 4/5, голосовать можно 1 раз )

    Другие торренты по теме:

  • Крупная Рыба / Big Fish (2003) BDRip-AVC | iPad
  • Крупная рыба / Big Fish (2003) BDRip-AVC
  • Крупная Рыба / Big Fish (2003) BDRip 1080p скачать бесплатно через торрент
  • Крупная рыба / Big Fish (2003) HDRip-AVC | iPhone | D


    • Комментарии (0):

      Информация

      Информация

        Посетители, находящиеся в группе Гости, не могут оставлять комментарии в данной новости.

        ↓ Меню



        ↓ Опрос

        А Вы добавили сайт в закладки?
        Да
        Не


        Top 10 за месяц (Фильмы)